  0
SECTION
  2
HEADER
  9
$ACADVER
  1
AC1004
  9
$ANGBASE
 50
0.000000
  9
$ANGDIR
 70
     0
  9
$ATTDIA
 70
     0
  9
$ATTMODE
 70
     1
  9
$ATTREQ
 70
     1
  9
$AUNITS
 70
     0
  9
$AUPREC
 70
     0
  9
$AXISMODE
 70
     0
  9
$AXISUNIT
 10
0.000000
 20
0.000000
  9
$BLIPMODE
 70
     1
  9
$CECOLOR
 62
   256
  9
$CELTYPE
  6
BYLAYER
  9
$CHAMFERA
 40
0.000000
  9
$CHAMFERB
 40
0.000000
  9
$CLAYER
  8
0
  9
$COORDS
 70
     0
  9
$DIMALT
 70
     0
  9
$DIMALTD
 70
     2
  9
$DIMALTF
 40
25.400000
  9
$DIMAPOST
  1

  9
$DIMASO
 70
     1
  9
$DIMASZ
 40
0.153877
  9
$DIMBLK
  1

  9
$DIMBLK1
  1

  9
$DIMBLK2
  1

  9
$DIMCEN
 40
9.000000E-02
  9
$DIMDLE
 40
0.000000
  9
$DIMDLI
 40
0.380000
  9
$DIMEXE
 40
0.150000
  9
$DIMEXO
 40
0.100000
  9
$DIMLFAC
 40
1.000000
  9
$DIMLIM
 70
     0
  9
$DIMPOST
  1

  9
$DIMRND
 40
0.000000
  9
$DIMSCALE
 40
1.000000
  9
$DIMSE1
 70
     0
  9
$DIMSE2
 70
     0
  9
$DIMSHO
 70
     0
  9
$DIMTAD
 70
     0
  9
$DIMTIH
 70
     0
  9
$DIMTM
 40
0.000000
  9
$DIMTOH
 70
     1
  9
$DIMTOL
 70
     0
  9
$DIMTP
 40
0.000000
  9
$DIMTSZ
 40
0.000000
  9
$DIMTXT
 40
0.125000
  9
$DIMZIN
 70
     0
  9
$DRAGMODE
 70
     1
  9
$DWGCODEPAGE
  3
ansi_1252
  9
$ELEVATION
 40
0.000000
  9
$EXTMAX
 10
14.222240
 20
1.450130
 30
0.000000
  9
$EXTMIN
 10
-7.493087
 20
-10.157516
 30
0.000000
  9
$FASTZOOM
 70
     1
  9
$FILLETRAD
 40
6.250000E-02
  9
$FILLMODE
 70
     1
  9
$GRIDMODE
 70
     0
  9
$GRIDUNIT
 10
0.000000
 20
0.000000
  9
$INSBASE
 10
0.000000
 20
0.000000
 30
0.000000
  9
$LIMCHECK
 70
     0
  9
$LIMMAX
 10
14.222240
 20
1.450130
  9
$LIMMIN
 10
-7.493087
 20
-10.157516
  9
$LTSCALE
 40
1.000000
  9
$LUNITS
 70
     2
  9
$LUPREC
 70
     3
  9
$MEASUREMENT
 70
     0
  9
$MENU
  1
ACAD
  9
$MIRRTEXT
 70
     0
  9
$ORTHOMODE
 70
     0
  9
$OSMODE
 70
     0
  9
$PDMODE
 70
     0
  9
$PDSIZE
 40
0.000000
  9
$PLINEWID
 40
0.000000
  9
$PROXYGRAPHICS
 70
     0
  9
$QTEXTMODE
 70
     0
  9
$REGENMODE
 70
     1
  9
$SKETCHINC
 40
0.100000
  9
$SKPOLY
 70
     0
  9
$SNAPANG
 50
0.000000
  9
$SNAPBASE
 10
0.000000
 20
0.000000
  9
$SNAPISOPAIR
 70
     0
  9
$SNAPMODE
 70
     0
  9
$SNAPSTYLE
 70
     0
  9
$SNAPUNIT
 10
1.000000
 20
1.000000
  9
$SPLFRAME
 70
     0
  9
$SPLINESEGS
 70
     8
  9
$TDCREATE
 40
2452711.394248
  9
$TDINDWG
 40
0.000000
  9
$TDUPDATE
 40
2452711.394248
  9
$TDUSRTIMER
 40
0.000000
  9
$TEXTSIZE
 40
0.125000
  9
$TEXTSTYLE
  7
STANDARD
  9
$THICKNESS
 40
0.000000
  9
$TRACEWID
 40
5.000000E-02
  9
$USERI1
 70
     0
  9
$USERI2
 70
     0
  9
$USERI3
 70
     0
  9
$USERI4
 70
     0
  9
$USERI5
 70
     0
  9
$USERR1
 40
0.000000
  9
$USERR2
 40
0.000000
  9
$USERR3
 40
0.000000
  9
$USERR4
 40
0.000000
  9
$USERR5
 40
0.000000
  9
$USRTIMER
 70
     1
  9
$VIEWCTR
 10
3.364577
 20
-4.353693
  9
$VIEWDIR
 10
0.000000
 20
0.000000
 30
1.000000
  9
$VIEWSIZE
 40
11.607647
  0
ENDSEC
  0
SECTION
  2
TABLES
  0
TABLE
  2
LTYPE
 70
     4
  0
LTYPE
  2
SOLID
  3
Solid
 70
    64
 72
    65
 73
     0
 40
0.000000
  0
LTYPE
  2
CENTERLINE
  3
Centerline
 70
    64
 72
    65
 73
     4
 40
1.000000
 49
0.750000
 49
-6.250000E-02
 49
0.125000
 49
-6.250000E-02
  0
LTYPE
  2
CONSTRUCTION
  3
Construction
 70
    64
 72
    65
 73
     2
 40
4.000000E-02
 49
1.000000E-02
 49
-3.000000E-02
  0
LTYPE
  2
GAP
  3
Gap
 70
    64
 72
    65
 73
     3
 40
100.060000
 49
0.000000
 49
-6.000000E-02
 49
100.000000
  0
ENDTAB
  0
TABLE
  2
LAYER
 70
     1
  0
LAYER
  2
Layer0$C$L0
 70
     0
  6
SOLID
 62
     2
  0
ENDTAB
  0
TABLE
  2
STYLE
 70
     1
  0
STYLE
  2
STANDARD
  3
txt
  4

 40
0.000000
 41
1.000000
 42
0.125000
 50
0.000000
 70
     0
 71
     0
  0
ENDTAB
  0
TABLE
  2
DIMSTYLE
 70
     1
  0
DIMSTYLE
  2
DIM0
 70
     0
  3

  4

  5

  6

  7

 40
1.000000
 41
0.153877
 42
0.100000
 43
0.380000
 44
0.150000
 45
0.000000
 46
0.000000
 47
0.000000
 48
0.000000
140
0.125000
141
9.000000E-02
142
0.000000
143
1.000000
144
1.000000
145
0.000000
146
1.000000
147
6.250000E-02
 71
     0
 72
     0
 73
     1
 74
     1
 75
     0
 76
     0
 77
     0
 78
     0
170
     0
171
     0
172
     0
173
     0
174
     0
175
     0
176
     0
177
     0
178
     0
270
     2
271
     2
272
     2
273
     2
274
     0
275
     1
280
     0
281
     0
282
     0
283
     1
284
     0
285
     0
286
     0
287
     3
288
     0
  0
ENDTAB
  0
ENDSEC
  0
SECTION
  2
BLOCKS
  0
BLOCK
  8
Layer0$C$L0
  2
*D0
 70
     1
 10
0.000000
 20
0.000000
  0
SOLID
  8
Layer0$C$L0
 62
     0
 10
-1.600125
 20
-3.783309
 11
-1.600125
 21
-3.844177
 12
-1.447122
 22
-3.813743
 13
-1.447122
 23
-3.813743
  0
LINE
  8
Layer0$C$L0
 10
-1.447122
 20
-3.813743
 11
-1.689259
 21
-3.813743
  0
SOLID
  8
Layer0$C$L0
 62
     0
 10
-2.246023
 20
-3.844177
 11
-2.246023
 21
-3.783309
 12
-2.399026
 22
-3.813743
 13
-2.399026
 23
-3.813743
  0
LINE
  8
Layer0$C$L0
 10
-2.399026
 20
-3.813743
 11
-2.155834
 21
-3.813743
  0
LINE
  8
Layer0$C$L0
 10
-1.447122
 20
-3.573361
 11
-1.447122
 21
-3.963743
  0
LINE
  8
Layer0$C$L0
  6
GAP
 10
-2.399026
 20
-2.975000
 11
-2.399026
 21
-3.963743
  0
TEXT
  8
Layer0$C$L0
 10
-2.093334
 20
-3.876243
 40
0.125000
  1
.95
 72
     5
 11
-1.751759
 21
-3.876243
  0
ENDBLK
  8
Layer0$C$L0
  0
BLOCK
  8
Layer0$C$L0
  2
*D1
 70
     1
 10
0.000000
 20
0.000000
  0
SOLID
  8
Layer0$C$L0
 62
     0
 10
2.948909
 20
-6.289728
 11
2.888041
 21
-6.289728
 12
2.918475
 22
-6.442731
 13
2.918475
 23
-6.442731
  0
LINE
  8
Layer0$C$L0
 10
2.918475
 20
-6.442731
 11
2.918475
 21
-6.041484
  0
SOLID
  8
Layer0$C$L0
 62
     0
 10
2.888041
 20
-5.597734
 11
2.948909
 21
-5.597734
 12
2.918475
 22
-5.444731
 13
2.918475
 23
-5.444731
  0
LINE
  8
Layer0$C$L0
 10
2.918475
 20
-5.444731
 11
2.918475
 21
-5.791484
  0
LINE
  8
Layer0$C$L0
  6
GAP
 10
2.624102
 20
-6.442731
 11
3.068475
 21
-6.442731
  0
LINE
  8
Layer0$C$L0
  6
GAP
 10
2.171212
 20
-5.444731
 11
3.068475
 21
-5.444731
  0
TEXT
  8
Layer0$C$L0
 10
2.685188
 20
-5.978984
 40
0.125000
  1
1.00
 72
     5
 11
3.151763
 21
-5.978984
  0
ENDBLK
  8
Layer0$C$L0
  0
BLOCK
  8
Layer0$C$L0
  2
*D2
 70
     1
 10
0.000000
 20
0.000000
  0
SOLID
  8
Layer0$C$L0
 62
     0
 10
9.281339E-02
 20
-4.657734
 11
0.153682
 21
-4.657734
 12
0.123247
 22
-4.504731
 13
0.123247
 23
-4.504731
  0
LINE
  8
Layer0$C$L0
 10
0.123247
 20
-4.504731
 11
0.123247
 21
-5.348731
  0
SOLID
  8
Layer0$C$L0
 62
     0
 10
0.153681
 20
-6.289728
 11
9.281326E-02
 21
-6.289728
 12
0.123247
 22
-6.442731
 13
0.123247
 23
-6.442731
  0
LINE
  8
Layer0$C$L0
 10
0.123247
 20
-6.442731
 11
0.123247
 21
-5.598731
  0
LINE
  8
Layer0$C$L0
  6
GAP
 10
-1.248147
 20
-4.504731
 11
0.273247
 21
-4.504731
  0
LINE
  8
Layer0$C$L0
  6
GAP
 10
-1.591512
 20
-6.442731
 11
0.273247
 21
-6.442731
  0
TEXT
  8
Layer0$C$L0
 10
-0.110040
 20
-5.536231
 40
0.125000
  1
1.94
 72
     5
 11
0.356535
 21
-5.536231
  0
ENDBLK
  8
Layer0$C$L0
  0
BLOCK
  8
Layer0$C$L0
  2
*D3
 70
     1
 10
0.000000
 20
0.000000
  0
SOLID
  8
Layer0$C$L0
 62
     0
 10
-2.879110
 20
-6.289728
 11
-2.939979
 21
-6.289728
 12
-2.909544
 22
-6.442731
 13
-2.909544
 23
-6.442731
  0
LINE
  8
Layer0$C$L0
 10
-2.909544
 20
-6.442731
 11
-2.909545
 21
-5.261615
  0
SOLID
  8
Layer0$C$L0
 62
     0
 10
-2.939979
 20
-4.585734
 11
-2.879111
 21
-4.585734
 12
-2.909545
 22
-4.432731
 13
-2.909545
 23
-4.432731
  0
LINE
  8
Layer0$C$L0
 10
-2.909545
 20
-4.432731
 11
-2.909545
 21
-5.011615
  0
LINE
  8
Layer0$C$L0
  6
GAP
 10
-2.422214
 20
-6.442731
 11
-3.059544
 21
-6.442731
  0
LINE
  8
Layer0$C$L0
  6
GAP
 10
-2.457914
 20
-4.432731
 11
-3.059545
 21
-4.432731
  0
TEXT
  8
Layer0$C$L0
 10
-3.142832
 20
-5.199115
 40
0.125000
  1
2.01
 72
     5
 11
-2.676257
 21
-5.199115
  0
ENDBLK
  8
Layer0$C$L0
  0
BLOCK
  8
Layer0$C$L0
  2
*D4
 70
     1
 10
0.000000
 20
0.000000
  0
SOLID
  8
Layer0$C$L0
 62
     0
 10
-2.246023
 20
-3.407372
 11
-2.246023
 21
-3.346504
 12
-2.399026
 22
-3.376938
 13
-2.399026
 23
-3.376938
  0
SOLID
  8
Layer0$C$L0
 62
     0
 10
-2.074125
 20
-3.346504
 11
-2.074125
 21
-3.407372
 12
-1.921122
 22
-3.376938
 13
-1.921122
 23
-3.376938
  0
LINE
  8
Layer0$C$L0
 10
-2.399026
 20
-3.376938
 11
-1.921122
 21
-3.376938
  0
LINE
  8
Layer0$C$L0
 10
-1.921122
 20
-3.376938
 11
-1.779716
 21
-3.376938
  0
LINE
  8
Layer0$C$L0
  6
GAP
 10
-1.921122
 20
-2.898373
 11
-1.921122
 21
-3.526938
  0
TEXT
  8
Layer0$C$L0
 10
-1.717216
 20
-3.439438
 40
0.125000
  1
.48
 72
     5
 11
-1.375640
 21
-3.439438
  0
ENDBLK
  8
Layer0$C$L0
  0
BLOCK
  8
Layer0$C$L0
  2
*D5
 70
     1
 10
0.000000
 20
0.000000
  0
SOLID
  8
Layer0$C$L0
 62
     0
 10
-2.944383
 20
-3.028002
 11
-2.883515
 21
-3.028002
 12
-2.913949
 22
-2.875000
 13
-2.913949
 23
-2.875000
  0
LINE
  8
Layer0$C$L0
 10
-2.913949
 20
-2.875000
 11
-2.913949
 21
-3.218582
  0
SOLID
  8
Layer0$C$L0
 62
     0
 10
-2.883515
 20
-2.408998
 11
-2.944383
 21
-2.408998
 12
-2.913949
 22
-2.562000
 13
-2.913949
 23
-2.562000
  0
LINE
  8
Layer0$C$L0
 10
-2.913949
 20
-2.562000
 11
-2.913949
 21
-2.162000
  0
LINE
  8
Layer0$C$L0
  6
GAP
 10
-2.205753
 20
-2.562000
 11
-3.063949
 21
-2.562000
  0
TEXT
  8
Layer0$C$L0
 10
-3.084737
 20
-3.406082
 40
0.125000
  1
.31
 72
     5
 11
-2.743162
 21
-3.406082
  0
ENDBLK
  8
Layer0$C$L0
  0
BLOCK
  8
Layer0$C$L0
  2
*D6
 70
     1
 10
0.000000
 20
0.000000
  0
SOLID
  8
Layer0$C$L0
 62
     0
 10
-2.883515
 20
-2.408998
 11
-2.944383
 21
-2.408998
 12
-2.913949
 22
-2.562001
 13
-2.913949
 23
-2.562001
  0
LINE
  8
Layer0$C$L0
 10
-2.913949
 20
-2.562001
 11
-2.913949
 21
-1.562000
  0
SOLID
  8
Layer0$C$L0
 62
     0
 10
-2.944384
 20
-0.465002
 11
-2.883515
 21
-0.465002
 12
-2.913949
 22
-0.312000
 13
-2.913949
 23
-0.312000
  0
LINE
  8
Layer0$C$L0
 10
-2.913949
 20
-0.312000
 11
-2.913949
 21
-1.312000
  0
LINE
  8
Layer0$C$L0
  6
GAP
 10
-2.217480
 20
-0.311999
 11
-3.063949
 21
-0.312000
  0
TEXT
  8
Layer0$C$L0
 10
-3.147237
 20
-1.499500
 40
0.125000
  1
2.25
 72
     5
 11
-2.680662
 21
-1.499500
  0
ENDBLK
  8
Layer0$C$L0
  0
BLOCK
  8
Layer0$C$L0
  2
*D7
 70
     1
 10
0.000000
 20
0.000000
  0
SOLID
  8
Layer0$C$L0
 62
     0
 10
-3.491736
 20
-2.721998
 11
-3.552605
 21
-2.721998
 12
-3.522171
 22
-2.875000
 13
-3.522171
 23
-2.875000
  0
LINE
  8
Layer0$C$L0
 10
-3.522171
 20
-2.875000
 11
-3.522171
 21
-1.356972
  0
SOLID
  8
Layer0$C$L0
 62
     0
 10
-3.552605
 20
-0.153003
 11
-3.491737
 21
-0.153003
 12
-3.522171
 22
-1.829836E-07
 13
-3.522171
 23
-1.829836E-07
  0
LINE
  8
Layer0$C$L0
 10
-3.522171
 20
-1.829836E-07
 11
-3.522171
 21
-1.106972
  0
LINE
  8
Layer0$C$L0
  6
GAP
 10
-2.499026
 20
-2.875000
 11
-3.672171
 21
-2.875000
  0
LINE
  8
Layer0$C$L0
  6
GAP
 10
-2.499026
 20
-1.629206E-08
 11
-3.672171
 21
-2.074217E-07
  0
TEXT
  8
Layer0$C$L0
 10
-3.755458
 20
-1.294472
 40
0.125000
  1
2.87
 72
     5
 11
-3.288883
 21
-1.294472
  0
ENDBLK
  8
Layer0$C$L0
  0
BLOCK
  8
Layer0$C$L0
  2
*D8
 70
     1
 10
0.000000
 20
0.000000
  0
SOLID
  8
Layer0$C$L0
 62
     0
 10
-0.422940
 20
-5.365734
 11
-0.362072
 21
-5.365734
 12
-0.392506
 22
-5.212731
 13
-0.392506
 23
-5.212731
  0
LINE
  8
Layer0$C$L0
 10
-0.392506
 20
-5.212731
 11
-0.392506
 21
-5.702731
  0
SOLID
  8
Layer0$C$L0
 62
     0
 10
-0.362072
 20
-6.289728
 11
-0.422940
 21
-6.289728
 12
-0.392506
 22
-6.442731
 13
-0.392506
 23
-6.442731
  0
LINE
  8
Layer0$C$L0
 10
-0.392506
 20
-6.442731
 11
-0.392506
 21
-5.952731
  0
LINE
  8
Layer0$C$L0
  6
GAP
 10
-1.591512
 20
-5.212731
 11
-0.242506
 21
-5.212731
  0
TEXT
  8
Layer0$C$L0
  6
GAP
 10
-0.625794
 20
-5.890231
 40
0.125000
  1
1.23
 72
     5
 11
-0.159218
 21
-5.890231
  0
ENDBLK
  8
Layer0$C$L0
  0
BLOCK
  8
Layer0$C$L0
  2
*D9
 70
     1
 10
0.000000
 20
0.000000
  0
SOLID
  8
Layer0$C$L0
 62
     0
 10
-0.915071
 20
-5.710734
 11
-0.854203
 21
-5.710734
 12
-0.884637
 22
-5.557731
 13
-0.884637
 23
-5.557731
  0
LINE
  8
Layer0$C$L0
 10
-0.884637
 20
-5.557731
 11
-0.884637
 21
-5.875231
  0
SOLID
  8
Layer0$C$L0
 62
     0
 10
-0.854203
 20
-6.289728
 11
-0.915071
 21
-6.289728
 12
-0.884637
 22
-6.442731
 13
-0.884637
 23
-6.442731
  0
LINE
  8
Layer0$C$L0
 10
-0.884637
 20
-6.442731
 11
-0.884637
 21
-6.125231
  0
LINE
  8
Layer0$C$L0
  6
GAP
 10
-1.591512
 20
-5.557731
 11
-0.734637
 21
-5.557731
  0
TEXT
  8
Layer0$C$L0
  6
GAP
 10
-1.055425
 20
-6.062731
 40
0.125000
  1
.88
 72
     5
 11
-0.713849
 21
-6.062731
  0
ENDBLK
  8
Layer0$C$L0
  0
BLOCK
  8
Layer0$C$L0
  2
*X0
 70
     1
 10
0.000000
 20
0.000000
  0
LINE
  8
Layer0$C$L0
 10
-4.465036
 20
1.101342
 11
-4.456174
 21
1.110204
  0
LINE
  8
Layer0$C$L0
 10
-4.445858
 20
1.141734
 11
-4.496564
 21
1.091026
  0
LINE
  8
Layer0$C$L0
 10
-4.506448
 20
1.102355
 11
-4.517778
 21
1.091026
  0
LINE
  8
Layer0$C$L0
 10
-4.445858
 20
1.162946
 11
-4.487188
 21
1.121617
  0
LINE
  8
Layer0$C$L0
 10
-4.529142
 20
1.100875
 11
-4.538991
 21
1.091026
  0
LINE
  8
Layer0$C$L0
 10
-4.445858
 20
1.184160
 11
-4.485708
 21
1.144310
  0
LINE
  8
Layer0$C$L0
 10
-4.550355
 20
1.100875
 11
-4.560205
 21
1.091026
  0
LINE
  8
Layer0$C$L0
 10
-4.460456
 20
1.190774
 11
-4.486736
 21
1.164495
  0
LINE
  8
Layer0$C$L0
 10
-4.568008
 20
1.104434
 11
-4.581106
 21
1.091339
  0
LINE
  8
Layer0$C$L0
 10
-4.481668
 20
1.190774
 11
-4.496688
 21
1.175756
  0
LINE
  8
Layer0$C$L0
 10
-4.445835
 20
1.226610
 11
-4.456441
 21
1.216003
  0
LINE
  8
Layer0$C$L0
 10
-4.578947
 20
1.114710
 11
-4.596979
 21
1.096679
  0
LINE
  8
Layer0$C$L0
 10
-4.502882
 20
1.190774
 11
-4.515695
 21
1.177963
  0
LINE
  8
Layer0$C$L0
 10
-4.446043
 20
1.247614
 11
-4.477655
 21
1.216003
  0
LINE
  8
Layer0$C$L0
 10
-4.583850
 20
1.131019
 11
-4.609207
 21
1.105664
  0
LINE
  8
Layer0$C$L0
 10
-4.524095
 20
1.190774
 11
-4.530670
 21
1.184201
  0
LINE
  8
Layer0$C$L0
 10
-4.451227
 20
1.263644
 11
-4.485633
 21
1.229237
  0
LINE
  8
Layer0$C$L0
 10
-4.583850
 20
1.152233
 11
-4.618082
 21
1.118000
  0
LINE
  8
Layer0$C$L0
 10
-4.460109
 20
1.275975
 11
-4.485633
 21
1.250450
  0
LINE
  8
Layer0$C$L0
 10
-4.583850
 20
1.173445
 11
-4.623136
 21
1.134160
  0
LINE
  8
Layer0$C$L0
 10
-4.472221
 20
1.285075
 11
-4.490362
 21
1.266935
  0
LINE
  8
Layer0$C$L0
 10
-4.583850
 20
1.194659
 11
-4.623600
 21
1.154909
  0
LINE
  8
Layer0$C$L0
 10
-4.488332
 20
1.290177
 11
-4.501300
 21
1.277210
  0
LINE
  8
Layer0$C$L0
 10
-4.583850
 20
1.215872
 11
-4.623600
 21
1.176123
  0
LINE
  8
Layer0$C$L0
 10
-4.508995
 20
1.290728
 11
-4.518692
 21
1.281031
  0
LINE
  8
Layer0$C$L0
 10
-4.583850
 20
1.237085
 11
-4.623600
 21
1.197337
  0
LINE
  8
Layer0$C$L0
 10
-4.530208
 20
1.290728
 11
-4.539905
 21
1.281031
  0
LINE
  8
Layer0$C$L0
 10
-4.582122
 20
1.260027
 11
-4.623600
 21
1.218549
  0
LINE
  8
Layer0$C$L0
 10
-4.551422
 20
1.290728
 11
-4.562860
 21
1.279289
  0
LINE
  8
Layer0$C$L0
 10
-4.572635
 20
1.290728
 11
-4.623600
 21
1.239763
  0
LINE
  8
Layer0$C$L0
 10
-4.604272
 20
1.280303
 11
-4.613136
 21
1.271441
  0
ENDBLK
  8
Layer0$C$L0
  0
BLOCK
  8
Layer0$C$L0
  2
*X1
 70
     1
 10
0.000000
 20
0.000000
  0
LINE
  8
Layer0$C$L0
 10
-4.273023
 20
1.091120
 11
-4.227951
 21
1.136193
  0
LINE
  8
Layer0$C$L0
 10
-4.227609
 20
1.157749
 11
-4.294580
 21
1.090778
  0
LINE
  8
Layer0$C$L0
 10
-4.305591
 20
1.100981
 11
-4.315794
 21
1.090778
  0
LINE
  8
Layer0$C$L0
 10
-4.227609
 20
1.178962
 11
-4.267810
 21
1.138759
  0
LINE
  8
Layer0$C$L0
 10
-4.326803
 20
1.100981
 11
-4.337007
 21
1.090778
  0
LINE
  8
Layer0$C$L0
 10
-4.227609
 20
1.200175
 11
-4.267810
 21
1.159973
  0
LINE
  8
Layer0$C$L0
 10
-4.346269
 20
1.102729
 11
-4.357912
 21
1.091087
  0
LINE
  8
Layer0$C$L0
 10
-4.227609
 20
1.221388
 11
-4.267810
 21
1.181185
  0
LINE
  8
Layer0$C$L0
 10
-4.358665
 20
1.111546
 11
-4.375394
 21
1.094818
  0
LINE
  8
Layer0$C$L0
 10
-4.227746
 20
1.242463
 11
-4.267810
 21
1.202399
  0
LINE
  8
Layer0$C$L0
 10
-4.365289
 20
1.126134
 11
-4.388381
 21
1.103042
  0
LINE
  8
Layer0$C$L0
 10
-4.231533
 20
1.259890
 11
-4.267810
 21
1.223612
  0
LINE
  8
Layer0$C$L0
 10
-4.365602
 20
1.147035
 11
-4.398153
 21
1.114484
  0
LINE
  8
Layer0$C$L0
 10
-4.239507
 20
1.273129
 11
-4.267810
 21
1.244825
  0
LINE
  8
Layer0$C$L0
 10
-4.365602
 20
1.168248
 11
-4.404340
 21
1.129511
  0
LINE
  8
Layer0$C$L0
 10
-4.250837
 20
1.283014
 11
-4.270483
 21
1.263367
  0
LINE
  8
Layer0$C$L0
 10
-4.365602
 20
1.189461
 11
-4.405706
 21
1.149359
  0
LINE
  8
Layer0$C$L0
 10
-4.265731
 20
1.289332
 11
-4.279994
 21
1.275069
  0
LINE
  8
Layer0$C$L0
 10
-4.365602
 20
1.210674
 11
-4.405706
 21
1.170572
  0
LINE
  8
Layer0$C$L0
 10
-4.285442
 20
1.290834
 11
-4.295511
 21
1.280766
  0
LINE
  8
Layer0$C$L0
 10
-4.365602
 20
1.231887
 11
-4.405706
 21
1.191785
  0
LINE
  8
Layer0$C$L0
 10
-4.306657
 20
1.290834
 11
-4.316707
 21
1.280784
  0
LINE
  8
Layer0$C$L0
 10
-4.365797
 20
1.252907
 11
-4.405706
 21
1.212999
  0
LINE
  8
Layer0$C$L0
 10
-4.327869
 20
1.290834
 11
-4.337739
 21
1.280964
  0
LINE
  8
Layer0$C$L0
 10
-4.349082
 20
1.290834
 11
-4.405706
 21
1.234211
  0
LINE
  8
Layer0$C$L0
 10
-4.373939
 20
1.287191
 11
-4.402023
 21
1.259108
  0
ENDBLK
  8
Layer0$C$L0
  0
BLOCK
  8
Layer0$C$L0
  2
*X2
 70
     1
 10
0.000000
 20
0.000000
  0
LINE
  8
Layer0$C$L0
 10
-4.048709
 20
1.091990
 11
-4.010820
 21
1.129878
  0
LINE
  8
Layer0$C$L0
 10
-4.009714
 20
1.152197
 11
-4.071027
 21
1.090884
  0
LINE
  8
Layer0$C$L0
 10
-4.082391
 20
1.100733
 11
-4.092241
 21
1.090884
  0
LINE
  8
Layer0$C$L0
 10
-4.009714
 20
1.173411
 11
-4.049564
 21
1.133561
  0
LINE
  8
Layer0$C$L0
 10
-4.103605
 20
1.100733
 11
-4.113454
 21
1.090884
  0
LINE
  8
Layer0$C$L0
 10
-4.009714
 20
1.194624
 11
-4.049564
 21
1.154775
  0
LINE
  8
Layer0$C$L0
 10
-4.124101
 20
1.101449
 11
-4.134668
 21
1.090884
  0
LINE
  8
Layer0$C$L0
 10
-4.009714
 20
1.215837
 11
-4.049564
 21
1.175988
  0
LINE
  8
Layer0$C$L0
 10
-4.137985
 20
1.108778
 11
-4.153299
 21
1.093465
  0
LINE
  8
Layer0$C$L0
 10
-4.009714
 20
1.237050
 11
-4.049564
 21
1.197201
  0
LINE
  8
Layer0$C$L0
 10
-4.146305
 20
1.121672
 11
-4.167375
 21
1.100603
  0
LINE
  8
Layer0$C$L0
 10
-4.009714
 20
1.258264
 11
-4.049564
 21
1.218415
  0
LINE
  8
Layer0$C$L0
 10
-4.147707
 20
1.141484
 11
-4.177986
 21
1.111205
  0
LINE
  8
Layer0$C$L0
 10
-4.009714
 20
1.279477
 11
-4.049564
 21
1.239627
  0
LINE
  8
Layer0$C$L0
 10
-4.147707
 20
1.162696
 11
-4.185119
 21
1.125285
  0
LINE
  8
Layer0$C$L0
 10
-4.019567
 20
1.290838
 11
-4.049564
 21
1.260841
  0
LINE
  8
Layer0$C$L0
 10
-4.147707
 20
1.183910
 11
-4.187810
 21
1.143808
  0
LINE
  8
Layer0$C$L0
 10
-4.040781
 20
1.290838
 11
-4.049564
 21
1.282054
  0
LINE
  8
Layer0$C$L0
 10
-4.147707
 20
1.205123
 11
-4.187810
 21
1.165020
  0
LINE
  8
Layer0$C$L0
 10
-4.147707
 20
1.226336
 11
-4.187810
 21
1.186234
  0
LINE
  8
Layer0$C$L0
 10
-4.147707
 20
1.247549
 11
-4.187810
 21
1.207447
  0
LINE
  8
Layer0$C$L0
 10
-4.147707
 20
1.268763
 11
-4.187810
 21
1.228660
  0
LINE
  8
Layer0$C$L0
 10
-4.147707
 20
1.289976
 11
-4.187810
 21
1.249874
  0
LINE
  8
Layer0$C$L0
 10
-4.168117
 20
1.290780
 11
-4.187810
 21
1.271087
  0
ENDBLK
  8
Layer0$C$L0
  0
BLOCK
  8
Layer0$C$L0
  2
*X3
 70
     1
 10
0.000000
 20
0.000000
  0
LINE
  8
Layer0$C$L0
 10
-3.809394
 20
1.090887
 11
-3.799446
 21
1.100837
  0
LINE
  8
Layer0$C$L0
 10
-3.820657
 20
1.100837
 11
-3.830608
 21
1.090887
  0
LINE
  8
Layer0$C$L0
 10
-3.851821
 20
1.090887
 11
-3.841871
 21
1.100837
  0
LINE
  8
Layer0$C$L0
 10
-3.863084
 20
1.100837
 11
-3.873035
 21
1.090887
  0
LINE
  8
Layer0$C$L0
 10
-3.894247
 20
1.090887
 11
-3.884298
 21
1.100837
  0
LINE
  8
Layer0$C$L0
 10
-3.905511
 20
1.100837
 11
-3.915460
 21
1.090887
  0
LINE
  8
Layer0$C$L0
 10
-3.936674
 20
1.090887
 11
-3.926725
 21
1.100837
  0
LINE
  8
Layer0$C$L0
 10
-3.929611
 20
1.119165
 11
-3.957887
 21
1.090887
  0
LINE
  8
Layer0$C$L0
 10
-3.969812
 20
1.100175
 11
-3.929611
 21
1.140377
  0
LINE
  8
Layer0$C$L0
 10
-3.929611
 20
1.161591
 11
-3.969812
 21
1.121388
  0
LINE
  8
Layer0$C$L0
 10
-3.969812
 20
1.142601
 11
-3.929611
 21
1.182804
  0
LINE
  8
Layer0$C$L0
 10
-3.929611
 20
1.204017
 11
-3.969812
 21
1.163815
  0
LINE
  8
Layer0$C$L0
 10
-3.969812
 20
1.185027
 11
-3.929611
 21
1.225231
  0
LINE
  8
Layer0$C$L0
 10
-3.929611
 20
1.246444
 11
-3.969812
 21
1.206241
  0
LINE
  8
Layer0$C$L0
 10
-3.969812
 20
1.227455
 11
-3.929611
 21
1.267657
  0
LINE
  8
Layer0$C$L0
 10
-3.929611
 20
1.288870
 11
-3.969812
 21
1.248667
  0
LINE
  8
Layer0$C$L0
 10
-3.969812
 20
1.269881
 11
-3.948808
 21
1.290885
  0
ENDBLK
  8
Layer0$C$L0
  0
BLOCK
  8
Layer0$C$L0
  2
*X4
 70
     1
 10
0.000000
 20
0.000000
  0
LINE
  8
Layer0$C$L0
 10
-3.622785
 20
1.090821
 11
-3.573707
 21
1.139898
  0
LINE
  8
Layer0$C$L0
 10
-3.631633
 20
1.103185
 11
-3.644077
 21
1.090742
  0
LINE
  8
Layer0$C$L0
 10
-3.573572
 20
1.161248
 11
-3.616016
 21
1.118803
  0
LINE
  8
Layer0$C$L0
 10
-3.655088
 20
1.100944
 11
-3.665290
 21
1.090742
  0
LINE
  8
Layer0$C$L0
 10
-3.573572
 20
1.182461
 11
-3.613775
 21
1.142258
  0
LINE
  8
Layer0$C$L0
 10
-3.676301
 20
1.100944
 11
-3.686504
 21
1.090742
  0
LINE
  8
Layer0$C$L0
 10
-3.573572
 20
1.203674
 11
-3.613775
 21
1.163472
  0
LINE
  8
Layer0$C$L0
 10
-3.697515
 20
1.100944
 11
-3.707717
 21
1.090742
  0
LINE
  8
Layer0$C$L0
 10
-3.573572
 20
1.224887
 11
-3.613775
 21
1.184684
  0
LINE
  8
Layer0$C$L0
 10
-3.711715
 20
1.107956
 11
-3.728931
 21
1.090742
  0
LINE
  8
Layer0$C$L0
 10
-3.574008
 20
1.245662
 11
-3.613775
 21
1.205898
  0
LINE
  8
Layer0$C$L0
 10
-3.711715
 20
1.129170
 11
-3.750144
 21
1.090742
  0
LINE
  8
Layer0$C$L0
 10
-3.578592
 20
1.262292
 11
-3.613775
 21
1.227111
  0
LINE
  8
Layer0$C$L0
 10
-3.711715
 20
1.150382
 11
-3.751565
 21
1.110533
  0
LINE
  8
Layer0$C$L0
 10
-3.587127
 20
1.274972
 11
-3.613775
 21
1.248324
  0
LINE
  8
Layer0$C$L0
 10
-3.711715
 20
1.171596
 11
-3.751565
 21
1.131747
  0
LINE
  8
Layer0$C$L0
 10
-3.599020
 20
1.284292
 11
-3.617603
 21
1.265708
  0
LINE
  8
Layer0$C$L0
 10
-3.711715
 20
1.192809
 11
-3.751565
 21
1.152960
  0
LINE
  8
Layer0$C$L0
 10
-3.614437
 20
1.290089
 11
-3.628059
 21
1.276465
  0
LINE
  8
Layer0$C$L0
 10
-3.711715
 20
1.214022
 11
-3.751565
 21
1.174173
  0
LINE
  8
Layer0$C$L0
 10
-3.634941
 20
1.290797
 11
-3.644990
 21
1.280747
  0
LINE
  8
Layer0$C$L0
 10
-3.711715
 20
1.235236
 11
-3.751565
 21
1.195386
  0
LINE
  8
Layer0$C$L0
 10
-3.656154
 20
1.290797
 11
-3.666204
 21
1.280747
  0
LINE
  8
Layer0$C$L0
 10
-3.711715
 20
1.256448
 11
-3.751565
 21
1.216600
  0
LINE
  8
Layer0$C$L0
 10
-3.677368
 20
1.290797
 11
-3.687418
 21
1.280747
  0
LINE
  8
Layer0$C$L0
 10
-3.711715
 20
1.277662
 11
-3.751565
 21
1.237812
  0
LINE
  8
Layer0$C$L0
 10
-3.698581
 20
1.290797
 11
-3.708631
 21
1.280747
  0
LINE
  8
Layer0$C$L0
 10
-3.719793
 20
1.290797
 11
-3.751565
 21
1.259026
  0
LINE
  8
Layer0$C$L0
 10
-3.741006
 20
1.290797
 11
-3.751565
 21
1.280239
  0
ENDBLK
  8
Layer0$C$L0
  0
BLOCK
  8
Layer0$C$L0
  2
*X5
 70
     1
 10
0.000000
 20
0.000000
  0
LINE
  8
Layer0$C$L0
 10
-4.799345
 20
1.091867
 11
-4.800053
 21
1.091160
  0
LINE
  8
Layer0$C$L0
 10
-4.699345
 20
1.191867
 11
-4.700053
 21
1.191159
  0
LINE
  8
Layer0$C$L0
 10
-4.799345
 20
1.113080
 11
-4.821267
 21
1.091160
  0
LINE
  8
Layer0$C$L0
 10
-4.699345
 20
1.213081
 11
-4.721266
 21
1.191159
  0
LINE
  8
Layer0$C$L0
 10
-4.799345
 20
1.134294
 11
-4.842480
 21
1.091160
  0
LINE
  8
Layer0$C$L0
 10
-4.699345
 20
1.234293
 11
-4.742480
 21
1.191159
  0
LINE
  8
Layer0$C$L0
 10
-4.799345
 20
1.155506
 11
-4.863692
 21
1.091160
  0
LINE
  8
Layer0$C$L0
 10
-4.699345
 20
1.255507
 11
-4.763693
 21
1.191159
  0
LINE
  8
Layer0$C$L0
 10
-4.799345
 20
1.176720
 11
-4.884905
 21
1.091160
  0
LINE
  8
Layer0$C$L0
 10
-4.699345
 20
1.276719
 11
-4.784905
 21
1.191159
  0
LINE
  8
Layer0$C$L0
 10
-4.705914
 20
1.291365
 11
-4.906119
 21
1.091160
  0
LINE
  8
Layer0$C$L0
 10
-4.727128
 20
1.291365
 11
-4.775778
 21
1.242714
  0
LINE
  8
Layer0$C$L0
 10
-4.748341
 20
1.291365
 11
-4.785923
 21
1.253783
  0
LINE
  8
Layer0$C$L0
 10
-4.769555
 20
1.291365
 11
-4.796069
 21
1.264850
  0
LINE
  8
Layer0$C$L0
 10
-4.790766
 20
1.291365
 11
-4.806214
 21
1.275918
  0
LINE
  8
Layer0$C$L0
 10
-4.799401
 20
1.303944
 11
-4.816359
 21
1.286986
  0
LINE
  8
Layer0$C$L0
 10
-4.799401
 20
1.325156
 11
-4.826504
 21
1.298053
  0
LINE
  8
Layer0$C$L0
 10
-4.799401
 20
1.346370
 11
-4.836649
 21
1.309121
  0
LINE
  8
Layer0$C$L0
 10
-4.799401
 20
1.367584
 11
-4.846797
 21
1.320189
  0
LINE
  8
Layer0$C$L0
 10
-4.799401
 20
1.388796
 11
-4.856942
 21
1.331256
  0
LINE
  8
Layer0$C$L0
 10
-4.817990
 20
1.391420
 11
-4.867087
 21
1.342324
  0
LINE
  8
Layer0$C$L0
 10
-4.839203
 20
1.391420
 11
-4.877232
 21
1.353392
  0
LINE
  8
Layer0$C$L0
 10
-4.860417
 20
1.391420
 11
-4.887377
 21
1.364460
  0
LINE
  8
Layer0$C$L0
 10
-4.881630
 20
1.391420
 11
-4.897522
 21
1.375528
  0
LINE
  8
Layer0$C$L0
 10
-4.902844
 20
1.391420
 11
-4.907668
 21
1.386595
  0
ENDBLK
  8
Layer0$C$L0
  0
BLOCK
  8
Layer0$C$L0
  2
*X6
 70
     1
 10
0.000000
 20
0.000000
  0
LINE
  8
Layer0$C$L0
 10
-4.869452
 20
1.191466
 11
-4.849652
 21
1.211266
  0
LINE
  8
Layer0$C$L0
 10
-4.849652
 20
1.232479
 11
-4.890666
 21
1.191466
  0
LINE
  8
Layer0$C$L0
 10
-4.911877
 20
1.191466
 11
-4.849652
 21
1.253692
  0
LINE
  8
Layer0$C$L0
 10
-4.849652
 20
1.274905
 11
-4.933091
 21
1.191466
  0
LINE
  8
Layer0$C$L0
 10
-4.954304
 20
1.191466
 11
-4.854453
 21
1.291318
  0
LINE
  8
Layer0$C$L0
 10
-4.875666
 20
1.291318
 11
-4.975518
 21
1.191466
  0
LINE
  8
Layer0$C$L0
 10
-4.996731
 20
1.191466
 11
-4.896880
 21
1.291318
  0
LINE
  8
Layer0$C$L0
 10
-4.918093
 20
1.291318
 11
-5.011866
 21
1.197544
  0
LINE
  8
Layer0$C$L0
 10
-5.011866
 20
1.218758
 11
-4.939307
 21
1.291318
  0
LINE
  8
Layer0$C$L0
 10
-4.960520
 20
1.291318
 11
-5.011866
 21
1.239970
  0
LINE
  8
Layer0$C$L0
 10
-5.011866
 20
1.261184
 11
-4.981732
 21
1.291318
  0
LINE
  8
Layer0$C$L0
 10
-5.002945
 20
1.291318
 11
-5.011866
 21
1.282398
  0
ENDBLK
  8
Layer0$C$L0
  0
BLOCK
  8
Layer0$C$L0
  2
SCREWSIDE
 70
     0
 10
0.000000
 20
0.000000
  0
POINT
  8
Layer0$C$L0
 10
0.000000
 20
0.000000
  0
LINE
  8
Layer0$C$L0
 10
-0.148329
 20
5.000019E-02
 11
-0.148329
 21
0.000000
  0
LINE
  8
Layer0$C$L0
 10
0.164671
 20
5.000019E-02
 11
0.164671
 21
0.000000
  0
LINE
  8
Layer0$C$L0
 10
-0.148329
 20
5.000019E-02
 11
0.164671
 21
5.000019E-02
  0
ARC
  8
Layer0$C$L0
 10
8.170843E-03
 20
-8.949614E-02
 40
0.209646
 50
41.712177
 51
84.525736
  0
LINE
  8
Layer0$C$L0
 10
-1.182914E-02
 20
0.100163
 11
-1.182914E-02
 21
0.119194
  0
LINE
  8
Layer0$C$L0
 10
2.817082E-02
 20
0.100163
 11
2.817082E-02
 21
0.119194
  0
LINE
  8
Layer0$C$L0
 10
-1.276183E-02
 20
0.100163
 11
2.817082E-02
 21
0.100163
  0
ARC
  8
Layer0$C$L0
 10
8.170843E-03
 20
-8.949614E-02
 40
0.209646
 50
95.474269
 51
138.287821
  0
ENDBLK
  8
Layer0$C$L0
  0
BLOCK
  8
Layer0$C$L0
  2
REV-LINESP
 70
     0
 10
0.000000
 20
0.000000
  0
POINT
  8
Layer0$C$L0
 10
0.000000
 20
0.000000
  0
LINE
  8
Layer0$C$L0
 10
0.000000
 20
-0.200000
 11
0.000000
 21
0.000000
  0
LINE
  8
Layer0$C$L0
 10
-0.375000
 20
-0.200000
 11
-0.375000
 21
0.000000
  0
LINE
  8
Layer0$C$L0
 10
-0.750000
 20
-0.200000
 11
-0.750000
 21
0.000000
  0
LINE
  8
Layer0$C$L0
 10
-3.000000
 20
-0.200000
 11
-3.000000
 21
0.000000
  0
LINE
  8
Layer0$C$L0
 10
-3.375000
 20
-0.200000
 11
-3.375000
 21
0.000000
  0
LINE
  8
Layer0$C$L0
 10
-4.000000
 20
-0.200000
 11
-4.000000
 21
0.000000
  0
LINE
  8
Layer0$C$L0
 10
-4.375000
 20
-0.200000
 11
-4.375000
 21
0.000000
  0
LINE
  8
Layer0$C$L0
 10
-4.375000
 20
-0.200000
 11
0.000000
 21
-0.200000
  0
ENDBLK
  8
Layer0$C$L0
  0
BLOCK
  8
Layer0$C$L0
  2
BP
 70
     0
 10
0.000000
 20
0.000000
  0
INSERT
  8
Layer0$C$L0
  2
NEWTITLE
 10
7.657000
 20
-4.906250
  0
INSERT
  8
Layer0$C$L0
  2
REV-HEADINGP
 10
7.657000
 20
4.906250
  0
POINT
  8
Layer0$C$L0
 10
7.657000
 20
4.906250
  0
INSERT
  8
Layer0$C$L0
 66
     1
  2
Cadra_attr_0
 10
0.000000
 20
0.000000
  0
ATTRIB
  8
Layer0$C$L0
 10
8.032000
 20
-5.281250
 40
0.156000
  1
HP7585  08.032  -05.281  00
  2
2
 70
    11
  0
SEQEND
  8
Layer0$C$L0
  0
INSERT
  8
Layer0$C$L0
 66
     1
  2
Cadra_attr_1
 10
0.000000
 20
0.000000
  0
ATTRIB
  8
Layer0$C$L0
 10
8.032000
 20
-4.936250
 40
0.156000
  1
HP7550  08.032  -04.936  00
  2
1
 70
    11
  0
SEQEND
  8
Layer0$C$L0
  0
INSERT
  8
Layer0$C$L0
 66
     1
  2
Cadra_attr_2
 10
0.000000
 20
0.000000
  0
ATTRIB
  8
Layer0$C$L0
 10
-7.718000
 20
5.218750
 40
0.156000
  1
HP7596  -07.718  05.219  180
  2
3
 70
    11
  0
SEQEND
  8
Layer0$C$L0
  0
LINE
  8
Layer0$C$L0
 10
-7.657001
 20
4.906250
 11
7.657000
 21
4.906250
  0
LINE
  8
Layer0$C$L0
 10
-7.657001
 20
4.906250
 11
-7.657001
 21
-4.906250
  0
LINE
  8
Layer0$C$L0
 10
7.654999
 20
-4.906250
 11
-7.657001
 21
-4.906250
  0
LINE
  8
Layer0$C$L0
 10
7.657000
 20
4.906250
 11
7.657000
 21
-4.906250
  0
ENDBLK
  8
Layer0$C$L0
  0
BLOCK
  8
Layer0$C$L0
  2
NEWTITLE
 70
     0
 10
0.000000
 20
0.000000
  0
INSERT
  8
Layer0$C$L0
  2
*X0
 10
0.000000
 20
0.000000
  0
INSERT
  8
Layer0$C$L0
  2
*X1
 10
0.000000
 20
0.000000
  0
INSERT
  8
Layer0$C$L0
  2
*X2
 10
0.000000
 20
0.000000
  0
INSERT
  8
Layer0$C$L0
  2
*X3
 10
0.000000
 20
0.000000
  0
INSERT
  8
Layer0$C$L0
  2
*X4
 10
0.000000
 20
0.000000
  0
INSERT
  8
Layer0$C$L0
  2
*X5
 10
0.000000
 20
0.000000
  0
INSERT
  8
Layer0$C$L0
  2
*X6
 10
0.000000
 20
0.000000
  0
TEXT
  8
Layer0$C$L0
 10
-2.370969
 20
1.281389
 40
4.687500E-02
  1
SPECIFIED: .XXXX%%p.0005;, .XXX%%p.005;, .XX%%p.01;,
 72
     5
 11
-0.227253
 21
1.281389
  0
TEXT
  8
Layer0$C$L0
 10
-2.370969
 20
1.211076
 40
4.687500E-02
  1
.X%%p.02;  X/X%%p1/32
 72
     5
 11
-1.586628
 21
1.211076
  0
TEXT
  8
Layer0$C$L0
 10
-4.979852
 20
0.252570
 40
4.687500E-02
  1
DESCRIPTION
 72
     5
 11
-4.476761
 21
0.252570
  0
TEXT
  8
Layer0$C$L0
 10
-4.979852
 20
0.568051
 40
4.687500E-02
  1
CHECKED BY:
 72
     5
 11
-4.476761
 21
0.568051
  0
TEXT
  8
Layer0$C$L0
 10
-4.979852
 20
0.901110
 40
4.687500E-02
  1
DRAWN BY:
 72
     5
 11
-4.570511
 21
0.901110
  0
TEXT
  8
Layer0$C$L0
 10
-1.871299
 20
0.252570
 40
4.687500E-02
  1
IDENTIFICATION NO. & REVISION
 72
     5
 11
-0.524459
 21
0.252570
  0
TEXT
  8
Layer0$C$L0
 10
-2.364801
 20
1.361413
 40
4.687500E-02
  1
TOLERANCE TO BE APPLIED UNLESS OTHERWISE
 72
     5
 11
-0.502335
 21
1.361413
  0
TEXT
  8
Layer0$C$L0
 10
-2.364801
 20
1.135219
 40
4.687500E-02
  1
UNSPECIFIED ANGLES%%p1%%d, SPECIFIED ANGLES%%pO%%d30'
 72
     5
 11
-0.267960
 21
1.135219
  0
TEXT
  8
Layer0$C$L0
 10
-2.364801
 20
1.052206
 40
4.687500E-02
  1
DIMENSIONS APPLY AFTER PLATING
 72
     5
 11
-0.971085
 21
1.052206
  0
TEXT
  8
Layer0$C$L0
 10
-2.364801
 20
0.943561
 40
4.687500E-02
  1
ALL SURFACES TO BE 125  UNLESS OTHERWISE SPECIFIED
 72
     5
 11
-3.358502E-02
 21
0.943561
  0
TEXT
  8
Layer0$C$L0
 10
-2.364801
 20
0.811332
 40
4.687500E-02
  1
BREAK ALL SHARP EDGES
 72
     5
 11
-1.392960
 21
0.811332
  0
TEXT
  8
Layer0$C$L0
 10
-2.444901
 20
0.381535
 40
6.300000E-02
  1
REFDOC:
 72
     5
 11
-2.020748
 21
0.381535
  0
TEXT
  8
Layer0$C$L0
 10
-2.364801
 20
0.736318
 40
4.687500E-02
  1
THIS DRAWING AND ALL INFORMATION THERE ON IS THE
 72
     5
 11
-0.127335
 21
0.736318
  0
TEXT
  8
Layer0$C$L0
 10
-2.364801
 20
0.666005
 40
4.687500E-02
  1
PROPERTY OF GOULD INC. AND IS SUBJECT TO RETURN ON
 72
     5
 11
-3.358502E-02
 21
0.666005
  0
TEXT
  8
Layer0$C$L0
 10
-2.364801
 20
0.595693
 40
4.687500E-02
  1
DEMAND.  THIS INFORMATION IS CONFIDENTIAL AND MUST
 72
     5
 11
-3.358502E-02
 21
0.595693
  0
TEXT
  8
Layer0$C$L0
 10
-2.364801
 20
0.525380
 40
4.687500E-02
  1
NOT BE MADE PUBLIC OR COPIED UNLESS AUTHORIZED.
 72
     5
 11
-0.174210
 21
0.525380
  0
TEXT
  8
Layer0$C$L0
 10
-3.135691
 20
0.907278
 40
4.687500E-02
  1
INIT. REL.
 72
     5
 11
-2.679475
 21
0.907278
  0
TEXT
  8
Layer0$C$L0
 10
-3.006168
 20
0.418541
 40
6.300000E-02
  1
NONE
 72
     5
 11
-2.771014
 21
0.418541
  0
TEXT
  8
Layer0$C$L0
 10
-3.111019
 20
0.574219
 40
4.687500E-02
  1
SCALE:
 72
     5
 11
-2.842304
 21
0.574219
  0
TEXT
  8
Layer0$C$L0
 10
-3.653783
 20
0.574219
 40
4.687500E-02
  1
DATE:
 72
     5
 11
-3.431942
 21
0.574219
  0
TEXT
  8
Layer0$C$L0
 10
-3.519015
 20
1.160825
 40
4.687500E-02
  1
P.O. BOX 729
 72
     5
 11
-2.969049
 21
1.160825
  0
TEXT
  8
Layer0$C$L0
 10
-3.515032
 20
1.089139
 40
4.687500E-02
  1
MARBLE FALLS, TX 78654
 72
     5
 11
-2.496317
 21
1.089139
  0
TEXT
  8
Layer0$C$L0
 10
-3.659951
 20
0.901110
 40
4.687500E-02
  1
DATE:
 72
     5
 11
-3.438110
 21
0.901110
  0
TEXT
  8
Layer0$C$L0
 10
-3.522998
 20
1.232512
 40
4.687500E-02
  1
GOULD INC.
 72
     5
 11
-3.066782
 21
1.232512
  0
TEXT
  8
Layer0$C$L0
 10
-5.004523
 20
0.999400
 40
6.000000E-02
  1
CIRCUIT PROTECTION DIV.
 72
     5
 11
-3.640567
 21
0.999400
  0
POINT
  8
Layer0$C$L0
 10
-1.988487
 20
0.413035
  0
LINE
  8
Layer0$C$L0
 10
-5.041019
 20
0.650082
 11
-2.475740
 21
0.650082
  0
LINE
  8
Layer0$C$L0
 10
-2.475740
 20
0.493216
 11
-4.263256E-14
 21
0.493216
  0
LINE
  8
Layer0$C$L0
 10
-5.041019
 20
1.436883
 11
-5.684342E-14
 21
1.436883
  0
LINE
  8
Layer0$C$L0
 10
-1.902138
 20
0.000000
 11
-1.902138
 21
0.326275
  0
LINE
  8
Layer0$C$L0
 10
-5.041019
 20
0.326275
 11
-5.684342E-14
 21
0.326275
  0
LINE
  8
Layer0$C$L0
 10
-3.141859
 20
0.326275
 11
-3.141859
 21
0.973890
  0
LINE
  8
Layer0$C$L0
 10
-2.475740
 20
0.326275
 11
-2.475740
 21
1.436883
  0
LINE
  8
Layer0$C$L0
 10
-5.041019
 20
0.973890
 11
-2.475740
 21
0.973890
  0
LINE
  8
Layer0$C$L0
 10
-5.041019
 20
0.000000
 11
-5.041019
 21
1.436883
  0
LINE
  8
Layer0$C$L0
 10
-5.012015
 20
1.291330
 11
-4.849514
 21
1.291330
  0
LINE
  8
Layer0$C$L0
 10
-4.849514
 20
1.291330
 11
-4.849514
 21
1.191329
  0
LINE
  8
Layer0$C$L0
 10
-4.849514
 20
1.191329
 11
-5.012015
 21
1.191329
  0
LINE
  8
Layer0$C$L0
 10
-5.012015
 20
1.191329
 11
-5.012015
 21
1.291330
  0
LINE
  8
Layer0$C$L0
 10
-4.912014
 20
1.391329
 11
-4.774516
 21
1.241329
  0
LINE
  8
Layer0$C$L0
 10
-4.774516
 20
1.241329
 11
-4.912014
 21
1.091330
  0
LINE
  8
Layer0$C$L0
 10
-4.912014
 20
1.091330
 11
-4.799515
 21
1.091330
  0
LINE
  8
Layer0$C$L0
 10
-4.799515
 20
1.091330
 11
-4.799515
 21
1.191329
  0
LINE
  8
Layer0$C$L0
 10
-4.799515
 20
1.191329
 11
-4.699515
 21
1.191329
  0
LINE
  8
Layer0$C$L0
 10
-4.699515
 20
1.191329
 11
-4.699515
 21
1.291330
  0
LINE
  8
Layer0$C$L0
 10
-4.699515
 20
1.291330
 11
-4.799515
 21
1.291330
  0
LINE
  8
Layer0$C$L0
 10
-4.799515
 20
1.291330
 11
-4.799515
 21
1.391329
  0
LINE
  8
Layer0$C$L0
 10
-4.799515
 20
1.391329
 11
-4.912014
 21
1.391329
  0
LINE
  8
Layer0$C$L0
 10
-3.791704
 20
1.100873
 11
-3.791704
 21
1.090874
  0
LINE
  8
Layer0$C$L0
 10
-3.969703
 20
1.290874
 11
-3.929704
 21
1.290874
  0
LINE
  8
Layer0$C$L0
 10
-4.049703
 20
1.290874
 11
-4.009704
 21
1.290874
  0
LINE
  8
Layer0$C$L0
 10
-4.187704
 20
1.290874
 11
-4.147705
 21
1.290874
  0
LINE
  8
Layer0$C$L0
 10
-3.573703
 20
1.140873
 11
-3.573703
 21
1.240874
  0
LINE
  8
Layer0$C$L0
 10
-3.751705
 20
1.090874
 11
-3.751705
 21
1.290874
  0
LINE
  8
Layer0$C$L0
 10
-3.613704
 20
1.130874
 11
-3.613704
 21
1.250874
  0
LINE
  8
Layer0$C$L0
 10
-3.711704
 20
1.100873
 11
-3.711704
 21
1.280874
  0
LINE
  8
Layer0$C$L0
 10
-3.751705
 20
1.090874
 11
-3.623704
 21
1.090874
  0
LINE
  8
Layer0$C$L0
 10
-3.751705
 20
1.290874
 11
-3.623704
 21
1.290874
  0
LINE
  8
Layer0$C$L0
 10
-3.711704
 20
1.100873
 11
-3.643703
 21
1.100873
  0
LINE
  8
Layer0$C$L0
 10
-3.711704
 20
1.280874
 11
-3.643703
 21
1.280874
  0
ARC
  8
Layer0$C$L0
 10
-3.623704
 20
1.140873
 40
5.000000E-02
 50
270.000001
 51
360.000010
  0
ARC
  8
Layer0$C$L0
 10
-3.623704
 20
1.240874
 40
5.000000E-02
 50
0.000000
 51
90.000003
  0
ARC
  8
Layer0$C$L0
 10
-3.643703
 20
1.130874
 40
3.000000E-02
 50
270.000001
 51
360.000010
  0
ARC
  8
Layer0$C$L0
 10
-3.643703
 20
1.250874
 40
3.000000E-02
 50
1.001791E-05
 51
89.999989
  0
LINE
  8
Layer0$C$L0
 10
-3.969703
 20
1.090874
 11
-3.969703
 21
1.290874
  0
LINE
  8
Layer0$C$L0
 10
-3.929704
 20
1.100873
 11
-3.929704
 21
1.290874
  0
LINE
  8
Layer0$C$L0
 10
-3.969703
 20
1.090874
 11
-3.791704
 21
1.090874
  0
LINE
  8
Layer0$C$L0
 10
-3.929704
 20
1.100873
 11
-3.791704
 21
1.100873
  0
LINE
  8
Layer0$C$L0
 10
-4.227705
 20
1.140873
 11
-4.227705
 21
1.240874
  0
LINE
  8
Layer0$C$L0
 10
-4.405706
 20
1.140873
 11
-4.405706
 21
1.240874
  0
LINE
  8
Layer0$C$L0
 10
-4.267704
 20
1.130874
 11
-4.267704
 21
1.250874
  0
LINE
  8
Layer0$C$L0
 10
-4.365705
 20
1.130874
 11
-4.365705
 21
1.250874
  0
LINE
  8
Layer0$C$L0
 10
-4.355705
 20
1.090874
 11
-4.277704
 21
1.090874
  0
LINE
  8
Layer0$C$L0
 10
-4.355705
 20
1.290874
 11
-4.277704
 21
1.290874
  0
LINE
  8
Layer0$C$L0
 10
-4.335706
 20
1.100873
 11
-4.297704
 21
1.100873
  0
LINE
  8
Layer0$C$L0
 10
-4.335706
 20
1.280874
 11
-4.297704
 21
1.280874
  0
ARC
  8
Layer0$C$L0
 10
-4.355705
 20
1.140873
 40
5.000000E-02
 50
180.000005
 51
270.000001
  0
ARC
  8
Layer0$C$L0
 10
-4.277704
 20
1.140873
 40
5.000000E-02
 50
270.000001
 51
360.000010
  0
ARC
  8
Layer0$C$L0
 10
-4.277704
 20
1.240874
 40
5.000000E-02
 50
0.000000
 51
90.000003
  0
ARC
  8
Layer0$C$L0
 10
-4.355705
 20
1.240874
 40
5.000000E-02
 50
90.000003
 51
180.000005
  0
ARC
  8
Layer0$C$L0
 10
-4.335706
 20
1.130874
 40
3.000000E-02
 50
180.000005
 51
270.000001
  0
ARC
  8
Layer0$C$L0
 10
-4.297704
 20
1.130874
 40
3.000000E-02
 50
270.000001
 51
360.000010
  0
ARC
  8
Layer0$C$L0
 10
-4.297704
 20
1.250874
 40
3.000000E-02
 50
1.001791E-05
 51
89.999989
  0
ARC
  8
Layer0$C$L0
 10
-4.335706
 20
1.250874
 40
3.000000E-02
 50
90.000003
 51
180.000005
  0
ARC
  8
Layer0$C$L0
 10
-4.505706
 20
1.157874
 40
2.000000E-02
 50
0.000000
 51
90.000003
  0
LINE
  8
Layer0$C$L0
 10
-4.445705
 20
1.140873
 11
-4.445705
 21
1.190874
  0
LINE
  8
Layer0$C$L0
 10
-4.485706
 20
1.130874
 11
-4.485706
 21
1.157874
  0
LINE
  8
Layer0$C$L0
 10
-4.485706
 20
1.215874
 11
-4.445705
 21
1.215874
  0
LINE
  8
Layer0$C$L0
 10
-4.445705
 20
1.215874
 11
-4.445705
 21
1.240874
  0
LINE
  8
Layer0$C$L0
 10
-4.623706
 20
1.140873
 11
-4.623706
 21
1.240874
  0
LINE
  8
Layer0$C$L0
 10
-4.485706
 20
1.215874
 11
-4.485706
 21
1.250874
  0
LINE
  8
Layer0$C$L0
 10
-4.583705
 20
1.130874
 11
-4.583705
 21
1.250874
  0
LINE
  8
Layer0$C$L0
 10
-4.573705
 20
1.090874
 11
-4.495706
 21
1.090874
  0
LINE
  8
Layer0$C$L0
 10
-4.573705
 20
1.290874
 11
-4.495706
 21
1.290874
  0
LINE
  8
Layer0$C$L0
 10
-4.553707
 20
1.100873
 11
-4.515705
 21
1.100873
  0
LINE
  8
Layer0$C$L0
 10
-4.553707
 20
1.280874
 11
-4.515705
 21
1.280874
  0
ARC
  8
Layer0$C$L0
 10
-4.573705
 20
1.140873
 40
5.000000E-02
 50
180.000005
 51
270.000001
  0
ARC
  8
Layer0$C$L0
 10
-4.495706
 20
1.140873
 40
5.000000E-02
 50
270.000001
 51
360.000010
  0
ARC
  8
Layer0$C$L0
 10
-4.495706
 20
1.240874
 40
5.000000E-02
 50
0.000000
 51
90.000003
  0
ARC
  8
Layer0$C$L0
 10
-4.573705
 20
1.240874
 40
5.000000E-02
 50
90.000003
 51
180.000005
  0
ARC
  8
Layer0$C$L0
 10
-4.553707
 20
1.130874
 40
3.000000E-02
 50
180.000005
 51
270.000001
  0
ARC
  8
Layer0$C$L0
 10
-4.515705
 20
1.130874
 40
3.000000E-02
 50
270.000001
 51
360.000010
  0
ARC
  8
Layer0$C$L0
 10
-4.515705
 20
1.250874
 40
3.000000E-02
 50
1.001791E-05
 51
89.999989
  0
ARC
  8
Layer0$C$L0
 10
-4.553707
 20
1.250874
 40
3.000000E-02
 50
90.000003
 51
180.000005
  0
ARC
  8
Layer0$C$L0
 10
-4.079704
 20
1.130874
 40
3.000000E-02
 50
270.000001
 51
360.000010
  0
ARC
  8
Layer0$C$L0
 10
-4.117704
 20
1.130874
 40
3.000000E-02
 50
180.000005
 51
270.000001
  0
ARC
  8
Layer0$C$L0
 10
-4.059703
 20
1.140873
 40
5.000000E-02
 50
270.000001
 51
360.000010
  0
ARC
  8
Layer0$C$L0
 10
-4.137704
 20
1.140873
 40
5.000000E-02
 50
180.000005
 51
270.000001
  0
LINE
  8
Layer0$C$L0
 10
-4.117704
 20
1.100873
 11
-4.079704
 21
1.100873
  0
LINE
  8
Layer0$C$L0
 10
-4.137704
 20
1.090874
 11
-4.059703
 21
1.090874
  0
LINE
  8
Layer0$C$L0
 10
-4.147705
 20
1.130874
 11
-4.147705
 21
1.290874
  0
LINE
  8
Layer0$C$L0
 10
-4.049703
 20
1.130874
 11
-4.049703
 21
1.290874
  0
LINE
  8
Layer0$C$L0
 10
-4.187704
 20
1.140873
 11
-4.187704
 21
1.290874
  0
LINE
  8
Layer0$C$L0
 10
-4.009704
 20
1.140873
 11
-4.009704
 21
1.290874
  0
LINE
  8
Layer0$C$L0
 10
-4.530706
 20
1.177874
 11
-4.530706
 21
1.190874
  0
LINE
  8
Layer0$C$L0
 10
-4.530706
 20
1.177874
 11
-4.505706
 21
1.177874
  0
LINE
  8
Layer0$C$L0
 10
-4.530706
 20
1.190874
 11
-4.445705
 21
1.190874
  0
LINE
  8
Layer0$C$L0
 10
-1.368988
 20
0.887476
 11
-1.396059
 21
0.934364
  0
LINE
  8
Layer0$C$L0
 10
-1.368988
 20
0.887476
 11
-1.291639
 21
1.021448
  0
ENDBLK
  8
Layer0$C$L0
  0
BLOCK
  8
Layer0$C$L0
  2
REV-HEADINGP
 70
     0
 10
0.000000
 20
0.000000
  0
TEXT
  8
Layer0$C$L0
 10
-0.271321
 20
-0.141521
 40
6.250000E-02
  1
CK
 72
     5
 11
-0.163033
 21
-0.141521
  0
TEXT
  8
Layer0$C$L0
 10
-0.641315
 20
-0.141704
 40
6.250000E-02
  1
BY
 72
     5
 11
-0.533027
 21
-0.141704
  0
TEXT
  8
Layer0$C$L0
 10
-2.220139
 20
-0.141521
 40
6.250000E-02
  1
DESCRIPTION
 72
     5
 11
-1.549351
 21
-0.141521
  0
TEXT
  8
Layer0$C$L0
 10
-3.281666
 20
-0.141521
 40
6.250000E-02
  1
ECO
 72
     5
 11
-3.110879
 21
-0.141521
  0
TEXT
  8
Layer0$C$L0
 10
-3.814410
 20
-0.141521
 40
6.250000E-02
  1
DATE
 72
     5
 11
-3.581123
 21
-0.141521
  0
TEXT
  8
Layer0$C$L0
 10
-4.289352
 20
-0.141521
 40
6.250000E-02
  1
REV
 72
     5
 11
-4.118564
 21
-0.141521
  0
LINE
  8
Layer0$C$L0
 10
0.000000
 20
-0.200000
 11
0.000000
 21
0.000000
  0
LINE
  8
Layer0$C$L0
 10
-0.375000
 20
-0.200000
 11
-0.375000
 21
0.000000
  0
LINE
  8
Layer0$C$L0
 10
-0.750000
 20
-0.200000
 11
-0.750000
 21
0.000000
  0
LINE
  8
Layer0$C$L0
 10
-3.000000
 20
-0.200000
 11
-3.000000
 21
0.000000
  0
LINE
  8
Layer0$C$L0
 10
-3.375000
 20
-0.200000
 11
-3.375000
 21
0.000000
  0
LINE
  8
Layer0$C$L0
 10
-4.000000
 20
-0.200000
 11
-4.000000
 21
0.000000
  0
LINE
  8
Layer0$C$L0
 10
-4.375000
 20
-0.200000
 11
-4.375000
 21
0.000000
  0
LINE
  8
Layer0$C$L0
 10
-4.375000
 20
-0.200000
 11
0.000000
 21
-0.200000
  0
ENDBLK
  8
Layer0$C$L0
  0
BLOCK
  8
Layer0$C$L0
  2
Cadra_attr_0
 70
     2
 10
0.000000
 20
0.000000
  0
POINT
  8
Layer0$C$L0
 10
8.032000
 20
-5.281250
  0
ATTDEF
  8
Layer0$C$L0
 10
8.032000
 20
-5.281250
 40
0.156000
  1
HP7585  08.032  -05.281  00
  3

  2
2
 70
    11
  0
ENDBLK
  8
Layer0$C$L0
  0
BLOCK
  8
Layer0$C$L0
  2
Cadra_attr_1
 70
     2
 10
0.000000
 20
0.000000
  0
POINT
  8
Layer0$C$L0
 10
8.032000
 20
-4.936250
  0
ATTDEF
  8
Layer0$C$L0
 10
8.032000
 20
-4.936250
 40
0.156000
  1
HP7550  08.032  -04.936  00
  3

  2
1
 70
    11
  0
ENDBLK
  8
Layer0$C$L0
  0
BLOCK
  8
Layer0$C$L0
  2
Cadra_attr_2
 70
     2
 10
0.000000
 20
0.000000
  0
POINT
  8
Layer0$C$L0
 10
-7.718000
 20
5.218750
  0
ATTDEF
  8
Layer0$C$L0
 10
-7.718000
 20
5.218750
 40
0.156000
  1
HP7596  -07.718  05.219  180
  3

  2
3
 70
    11
  0
ENDBLK
  8
Layer0$C$L0
  0
ENDSEC
  0
SECTION
  2
ENTITIES
  0
TEXT
  8
Layer0$C$L0
 10
10.486506
 20
-8.986504E-02
 40
0.125000
  1
GO
 72
     5
 11
10.703081
 21
-8.986504E-02
  0
TEXT
  8
Layer0$C$L0
 10
10.112704
 20
-8.504359E-02
 40
0.125000
  1
BM
 72
     5
 11
10.329280
 21
-8.504359E-02
  0
TEXT
  8
Layer0$C$L0
 10
6.861506
 20
-8.986504E-02
 40
0.125000
  1
4/92
 72
     5
 11
7.328081
 21
-8.986504E-02
  0
TEXT
  8
Layer0$C$L0
 10
-3.049595
 20
-8.982144
 40
0.125000
  1
ALLOY-TIN PLATED.
 72
     5
 11
-0.958019
 21
-8.982144
  0
TEXT
  8
Layer0$C$L0
 10
-3.506470
 20
-7.651269
 40
0.125000
  1
2  P/N 62131 USES SLOTTED SET SCREW
 72
     5
 11
0.835105
 21
-7.651269
  0
TEXT
  8
Layer0$C$L0
 10
-3.131470
 20
-7.901269
 40
0.125000
  1
P/N 63131 USES HEX SET SCREW
 72
     5
 11
0.335105
 21
-7.901269
  0
POLYLINE
  8
Layer0$C$L0
 66
     1
 70
     1
  0
VERTEX
  8
Layer0$C$L0
 10
-3.568970
 20
-7.463769
  0
VERTEX
  8
Layer0$C$L0
 10
-3.352395
 20
-7.463769
  0
VERTEX
  8
Layer0$C$L0
 10
-3.352395
 20
-7.713769
  0
VERTEX
  8
Layer0$C$L0
 10
-3.568970
 20
-7.713769
  0
SEQEND
  8
Layer0$C$L0
  0
TEXT
  8
Layer0$C$L0
 10
7.967445
 20
-1.415003
 40
0.125000
  1
U L
 72
     5
 11
8.309021
 21
-1.415003
  0
TEXT
  8
Layer0$C$L0
 10
9.039039
 20
-9.484818
 40
0.125000
  1
05B0389
 72
     5
 11
9.880614
 21
-9.484818
  0
CIRCLE
  8
Layer0$C$L0
 10
-1.921122
 20
-1.410555
 40
0.150000
  0
TEXT
  8
Layer0$C$L0
 10
1.640837
 20
-3.571010
 40
0.125000
  1
63131
 72
     5
 11
2.232412
 21
-3.571010
  0
TEXT
  8
Layer0$C$L0
 10
1.632886
 20
-2.520154
 40
0.125000
  1
62131
 72
     5
 11
2.224461
 21
-2.520154
  0
TEXT
  8
Layer0$C$L0
 10
9.482282
 20
-3.545431
 40
0.125000
  1
LR69363
 72
     5
 11
10.323857
 21
-3.545431
  0
TEXT
  8
Layer0$C$L0
 10
9.469077
 20
-2.532772
 40
0.125000
  1
LR69363
 72
     5
 11
10.310652
 21
-2.532772
  0
TEXT
  8
Layer0$C$L0
 10
8.400155
 20
-3.536561
 40
0.125000
  1
XCFR2
 72
     5
 11
8.991730
 21
-3.536561
  0
TEXT
  8
Layer0$C$L0
 10
8.313610
 20
-2.534027
 40
0.125000
  1
XCFR2
 72
     5
 11
8.905185
 21
-2.534027
  0
TEXT
  8
Layer0$C$L0
 10
7.193144
 20
-3.555010
 40
0.125000
  1
E73571
 72
     5
 11
7.909719
 21
-3.555010
  0
TEXT
  8
Layer0$C$L0
 10
7.243406
 20
-2.534027
 40
0.125000
  1
E73571
 72
     5
 11
7.959982
 21
-2.534027
  0
TEXT
  8
Layer0$C$L0
 10
9.401243
 20
-1.841268
 40
0.125000
  1
REPORT NO.
 72
     5
 11
10.617819
 21
-1.841268
  0
TEXT
  8
Layer0$C$L0
 10
8.225786
 20
-1.841268
 40
0.125000
  1
GUIDE NO.
 72
     5
 11
9.317362
 21
-1.841268
  0
TEXT
  8
Layer0$C$L0
 10
9.672503
 20
-1.440838
 40
0.125000
  1
CSA
 72
     5
 11
10.014079
 21
-1.440838
  0
TEXT
  8
Layer0$C$L0
 10
7.166584
 20
-1.841268
 40
0.125000
  1
FILE NO.
 72
     5
 11
8.133159
 21
-1.841268
  0
TEXT
  8
Layer0$C$L0
 10
5.800171
 20
-3.839110
 40
0.125000
  1
#10-#14 20
 72
     5
 11
7.016746
 21
-3.839110
  0
TEXT
  8
Layer0$C$L0
 10
5.791636
 20
-3.523239
 40
0.125000
  1
#8      25
 72
     5
 11
7.008211
 21
-3.523239
  0
TEXT
  8
Layer0$C$L0
 10
5.766024
 20
-3.250053
 40
0.125000
  1
#4-#6   35
 72
     5
 11
6.982599
 21
-3.250053
  0
TEXT
  8
Layer0$C$L0
 10
5.777334
 20
-2.932624
 40
0.125000
  1
#10-#14 20
 72
     5
 11
6.993910
 21
-2.932624
  0
TEXT
  8
Layer0$C$L0
 10
5.790985
 20
-2.585899
 40
0.125000
  1
#8      25
 72
     5
 11
7.007560
 21
-2.585899
  0
TEXT
  8
Layer0$C$L0
 10
5.782795
 20
-2.165462
 40
0.125000
  1
#4-#6   35
 72
     5
 11
6.999370
 21
-2.165462
  0
TEXT
  8
Layer0$C$L0
 10
4.844337
 20
-3.517029
 40
0.125000
  1
#4-#14
 72
     5
 11
5.560912
 21
-3.517029
  0
TEXT
  8
Layer0$C$L0
 10
4.838027
 20
-2.539082
 40
0.125000
  1
#4-#14
 72
     5
 11
5.554603
 21
-2.539082
  0
TEXT
  8
Layer0$C$L0
 10
3.418803
 20
-3.759799
 40
0.125000
  1
#8-#14  50
 72
     5
 11
4.635378
 21
-3.759799
  0
TEXT
  8
Layer0$C$L0
 10
3.430913
 20
-3.323804
 40
0.125000
  1
2/0-#6 120
 72
     5
 11
4.647489
 21
-3.323804
  0
TEXT
  8
Layer0$C$L0
 10
3.394581
 20
-2.960475
 40
0.125000
  1
#10-#14 35
 72
     5
 11
4.611156
 21
-2.960475
  0
TEXT
  8
Layer0$C$L0
 10
3.416935
 20
-2.654976
 40
0.125000
  1
#8      40
 72
     5
 11
4.633511
 21
-2.654976
  0
TEXT
  8
Layer0$C$L0
 10
3.424935
 20
-2.374961
 40
0.125000
  1
#4-#6   45
 72
     5
 11
4.641510
 21
-2.374961
  0
TEXT
  8
Layer0$C$L0
 10
3.408934
 20
-2.102946
 40
0.125000
  1
2/0-#3  50
 72
     5
 11
4.625509
 21
-2.102946
  0
TEXT
  8
Layer0$C$L0
 10
2.413593
 20
-3.575360
 40
0.125000
  1
2/0-#14
 72
     5
 11
3.255169
 21
-3.575360
  0
TEXT
  8
Layer0$C$L0
 10
2.440481
 20
-2.526464
 40
0.125000
  1
2/0-#14
 72
     5
 11
3.282056
 21
-2.526464
  0
TEXT
  8
Layer0$C$L0
 10
6.016961
 20
-1.841268
 40
0.125000
  1
TORQUE
 72
     5
 11
6.733536
 21
-1.841268
  0
TEXT
  8
Layer0$C$L0
 10
5.329041
 20
-1.534914
 40
0.125000
  1
SECONDARY
 72
     5
 11
6.420616
 21
-1.534914
  0
TEXT
  8
Layer0$C$L0
 10
4.880256
 20
-1.841268
 40
0.125000
  1
RANGE
 72
     5
 11
5.471831
 21
-1.841268
  0
TEXT
  8
Layer0$C$L0
 10
3.632946
 20
-1.830931
 40
0.125000
  1
TORQUE
 72
     5
 11
4.349522
 21
-1.830931
  0
TEXT
  8
Layer0$C$L0
 10
2.544886
 20
-1.830931
 40
0.125000
  1
RANGE
 72
     5
 11
3.136461
 21
-1.830931
  0
TEXT
  8
Layer0$C$L0
 10
2.942101
 20
-1.559035
 40
0.125000
  1
PRIMARY
 72
     5
 11
3.783676
 21
-1.559035
  0
TEXT
  8
Layer0$C$L0
 10
3.193532
 20
-1.267446
 40
0.125000
  1
WIRE RANGE & TORQUE (IN-LBS)
 72
     5
 11
6.660107
 21
-1.267446
  0
TEXT
  8
Layer0$C$L0
 10
1.689728
 20
-1.608760
 40
0.125000
  1
P/N
 72
     5
 11
2.031304
 21
-1.608760
  0
LINE
  8
Layer0$C$L0
 10
5.735764
 20
-2.652094
 11
7.075764
 21
-2.652094
  0
LINE
  8
Layer0$C$L0
 10
5.735764
 20
-2.279095
 11
7.075764
 21
-2.279095
  0
LINE
  8
Layer0$C$L0
 10
3.370762
 20
-3.476095
 11
4.705763
 21
-3.476095
  0
LINE
  8
Layer0$C$L0
 10
3.370762
 20
-2.766095
 11
4.705763
 21
-2.766095
  0
LINE
  8
Layer0$C$L0
 10
7.075764
 20
-2.896095
 11
10.570764
 21
-2.896095
  0
LINE
  8
Layer0$C$L0
 10
1.530762
 20
-3.026095
 11
7.075764
 21
-3.026095
  0
LINE
  8
Layer0$C$L0
 10
3.370762
 20
-2.466095
 11
4.705763
 21
-2.466095
  0
LINE
  8
Layer0$C$L0
 10
3.370762
 20
-2.186095
 11
4.705763
 21
-2.186095
  0
LINE
  8
Layer0$C$L0
 10
1.530762
 20
-1.906095
 11
10.570764
 21
-1.906095
  0
LINE
  8
Layer0$C$L0
 10
7.075764
 20
-3.886095
 11
7.075764
 21
-1.066095
  0
LINE
  8
Layer0$C$L0
 10
5.735764
 20
-3.886095
 11
5.735764
 21
-1.626095
  0
LINE
  8
Layer0$C$L0
 10
4.705763
 20
-3.886095
 11
4.705763
 21
-1.646095
  0
LINE
  8
Layer0$C$L0
 10
1.530762
 20
-3.886095
 11
10.570764
 21
-3.886095
  0
LINE
  8
Layer0$C$L0
 10
3.370762
 20
-3.886095
 11
3.370762
 21
-1.626095
  0
LINE
  8
Layer0$C$L0
 10
1.530762
 20
-3.886095
 11
1.530762
 21
-1.066095
  0
LINE
  8
Layer0$C$L0
 10
2.335763
 20
-3.886095
 11
2.335763
 21
-1.066095
  0
LINE
  8
Layer0$C$L0
 10
1.530762
 20
-1.066095
 11
10.570764
 21
-1.066095
  0
LINE
  8
Layer0$C$L0
 10
2.335763
 20
-1.346095
 11
7.075764
 21
-1.346095
  0
LINE
  8
Layer0$C$L0
 10
2.335763
 20
-1.626095
 11
10.570764
 21
-1.626095
  0
LINE
  8
Layer0$C$L0
 10
5.735764
 20
-3.326095
 11
7.075764
 21
-3.326095
  0
LINE
  8
Layer0$C$L0
 10
8.125760
 20
-3.886095
 11
8.125760
 21
-1.626095
  0
LINE
  8
Layer0$C$L0
 10
9.315763
 20
-3.886095
 11
9.315763
 21
-1.066095
  0
LINE
  8
Layer0$C$L0
 10
5.735764
 20
-3.606095
 11
7.075764
 21
-3.606095
  0
LINE
  8
Layer0$C$L0
 10
10.570764
 20
-3.886095
 11
10.570764
 21
-1.066095
  0
LINE
  8
Layer0$C$L0
 10
-1.447122
 20
-2.942166
 11
-1.447122
 21
-3.205717
  0
DIMENSION
  8
Layer0$C$L0
  2
*D0
 10
-2.399026
 20
-3.813743
 11
-1.922547
 21
-3.813743
 13
-1.447122
 23
-3.573361
 14
-2.399026
 24
-2.875000
  3
DIM0
  0
TEXT
  8
Layer0$C$L0
 10
-3.475372
 20
-7.269075
 40
0.125000
  1
3. (1)2/0-#14 X (4)#4-14 1 POLE 600V
 72
     5
 11
0.991204
 21
-7.269075
  0
TEXT
  8
Layer0$C$L0
 10
8.353258
 20
-7.710998
 40
0.125000
  1
P/N 62131 (CU-ONLY)
 72
     5
 11
10.694833
 21
-7.710998
  0
TEXT
  8
Layer0$C$L0
 10
8.345607
 20
-7.913576
 40
0.125000
  1
P/N 63131 (CU-AL)
 72
     5
 11
10.437182
 21
-7.913576
  0
POLYLINE
  8
Layer0$C$L0
 66
     1
  0
VERTEX
  8
Layer0$C$L0
 10
-1.846270
 20
-0.379809
  0
VERTEX
  8
Layer0$C$L0
 10
-0.690147
 20
-0.999396
  0
VERTEX
  8
Layer0$C$L0
 10
-0.633977
 20
-0.999396
  0
SEQEND
  8
Layer0$C$L0
  0
SOLID
  8
Layer0$C$L0
 62
     0
 10
-1.725788
 20
-0.478906
 11
-1.697037
 21
-0.425256
 12
-1.846270
 22
-0.379809
 13
-1.846270
 23
-0.379809
  0
TEXT
  8
Layer0$C$L0
 10
-0.571477
 20
-1.061896
 40
0.125000
  1
%%c .20 X .125 DP
 72
     5
 11
1.302598
 21
-1.061896
  0
TEXT
  8
Layer0$C$L0
 10
-0.242727
 20
-1.249396
 40
0.125000
  1
TYP 2 PLCS
 72
     5
 11
0.973848
 21
-1.249396
  0
INSERT
  8
Layer0$C$L0
  2
SCREWSIDE
 10
1.982134
 20
-4.787678
  0
INSERT
  8
Layer0$C$L0
  2
SCREWSIDE
 10
-1.848458
 20
-4.787635
  0
DIMENSION
  8
Layer0$C$L0
  2
*D1
 10
2.918475
 20
-5.444731
 11
2.918475
 21
-5.916484
 13
2.524102
 23
-6.442731
 14
2.071212
 24
-5.444731
 50
90.000000
  3
DIM0
  0
POLYLINE
  8
Layer0$C$L0
 66
     1
  0
VERTEX
  8
Layer0$C$L0
 10
-1.774555
 20
-1.027492
  0
VERTEX
  8
Layer0$C$L0
 10
-0.595211
 20
-1.865685
  0
VERTEX
  8
Layer0$C$L0
 10
-0.440941
 20
-1.865685
  0
SEQEND
  8
Layer0$C$L0
  0
SOLID
  8
Layer0$C$L0
 62
     0
 10
-1.667473
 20
-1.140936
 11
-1.632211
 21
-1.091322
 12
-1.774555
 22
-1.027492
 13
-1.774555
 23
-1.027492
  0
POLYLINE
  8
Layer0$C$L0
 66
     1
 70
     1
  0
VERTEX
  8
Layer0$C$L0
 10
-0.440941
 20
-1.740685
  0
VERTEX
  8
Layer0$C$L0
 10
-0.224365
 20
-1.740685
  0
VERTEX
  8
Layer0$C$L0
 10
-0.224365
 20
-1.990685
  0
VERTEX
  8
Layer0$C$L0
 10
-0.440941
 20
-1.990685
  0
SEQEND
  8
Layer0$C$L0
  0
TEXT
  8
Layer0$C$L0
 10
-0.378441
 20
-1.928185
 40
0.125000
  1
2
 72
     5
 11
-0.286865
 21
-1.928185
  0
TEXT
  8
Layer0$C$L0
 10
5.902067
 20
-9.486053
 40
0.125000
  1
PDB
 72
     5
 11
6.243642
 21
-9.486053
  0
TEXT
  8
Layer0$C$L0
 10
6.153824
 20
-9.138167
 40
0.125000
  1
GO
 72
     5
 11
6.370399
 21
-9.138167
  0
TEXT
  8
Layer0$C$L0
 10
7.027417
 20
-8.818370
 40
0.125000
  1
4/92
 72
     5
 11
7.493993
 21
-8.818370
  0
TEXT
  8
Layer0$C$L0
 10
6.153824
 20
-8.818370
 40
0.125000
  1
KDS
 72
     5
 11
6.495399
 21
-8.818370
  0
DIMENSION
  8
Layer0$C$L0
  2
*D2
 10
0.123247
 20
-6.442731
 11
0.123247
 21
-5.473731
 13
-1.348147
 23
-4.504731
 14
-1.691512
 24
-6.442731
 50
-90.000005
  3
DIM0
  0
DIMENSION
  8
Layer0$C$L0
  2
*D3
 10
-2.909545
 20
-4.432731
 11
-2.909545
 21
-5.136615
 13
-2.322214
 23
-6.442731
 14
-2.357914
 24
-4.432731
 50
90.000012
  3
DIM0
  0
DIMENSION
  8
Layer0$C$L0
  2
*D4
 10
-1.921122
 20
-3.376938
 11
-1.546428
 21
-3.376938
 13
-2.399026
 23
-2.898840
 14
-1.921122
 24
-2.798373
  3
DIM0
  0
DIMENSION
  8
Layer0$C$L0
  2
*D5
 10
-2.913949
 20
-2.562000
 11
-2.913949
 21
-3.343582
 13
-2.399026
 23
-2.875000
 14
-2.105753
 24
-2.562000
 50
90.000000
  3
DIM0
  0
DIMENSION
  8
Layer0$C$L0
  2
*D6
 10
-2.913949
 20
-0.312000
 11
-2.913949
 21
-1.437000
 13
-2.105753
 23
-2.562000
 14
-2.117480
 24
-0.311999
 50
90.000014
  3
DIM0
  0
DIMENSION
  8
Layer0$C$L0
  2
*D7
 70
     1
 10
-3.522171
 20
-1.829836E-07
 11
-3.522171
 21
-1.231972
 13
-2.399026
 23
-2.875000
 14
-2.399026
 24
7.105427E-15
 50
90.000009
  3
DIM0
  0
TEXT
  8
Layer0$C$L0
 10
-3.311356
 20
-9.200297
 40
0.125000
  1
NOTES: UNLESS OTHERWISE SPECIFIED
 72
     5
 11
0.780220
 21
-9.200297
  0
TEXT
  8
Layer0$C$L0
 10
-3.053326
 20
-8.728884
 40
0.125000
  1
CONNECTOR-ALUMINUM OR COPPER
 72
     5
 11
0.413250
 21
-8.728884
  0
TEXT
  8
Layer0$C$L0
 10
-3.045177
 20
-8.468149
 40
0.125000
  1
BASE-THERMOPLASTIC-125%%dC RTI
 72
     5
 11
0.421398
 21
-8.468149
  0
TEXT
  8
Layer0$C$L0
 10
-3.501462
 20
-8.182971
 40
0.125000
  1
1. MATL COMPOSITION AND RATING:
 72
     5
 11
0.340113
 21
-8.182971
  0
TEXT
  8
Layer0$C$L0
 10
7.862516
 20
-9.233627E-02
 40
0.125000
  1
RELEASED
 72
     5
 11
8.829091
 21
-9.233627E-02
  0
TEXT
  8
Layer0$C$L0
 10
7.478749
 20
-9.233627E-02
 40
0.125000
  1
92-050
 41
0.433337
 72
     5
 11
7.749585
 21
-9.233627E-02
  0
TEXT
  8
Layer0$C$L0
 10
6.484088
 20
-9.233627E-02
 40
0.125000
  1
00
 72
     5
 11
6.700664
 21
-9.233627E-02
  0
INSERT
  8
Layer0$C$L0
  2
REV-LINESP
 10
10.799506
 20
-0.319464
  0
INSERT
  8
Layer0$C$L0
  2
REV-LINESP
 10
10.799506
 20
-0.123664
  0
INSERT
  8
Layer0$C$L0
  2
REV-LINESP
 10
10.799506
 20
7.213519E-02
  0
INSERT
  8
Layer0$C$L0
  2
BP
 10
3.144738
 20
-4.626266
  0
DIMENSION
  8
Layer0$C$L0
  2
*D8
 70
     1
 10
-0.392506
 20
-6.442731
 11
-0.392506
 21
-5.827731
 13
-1.691512
 23
-5.212731
 14
-1.691512
 24
-6.442731
 50
90.000003
  3
DIM0
  0
DIMENSION
  8
Layer0$C$L0
  2
*D9
 70
     1
 10
-0.884637
 20
-6.442731
 11
-0.884637
 21
-6.000231
 13
-1.691512
 23
-5.557731
 14
-1.691512
 24
-6.442731
 50
90.000000
  3
DIM0
  0
LINE
  8
Layer0$C$L0
 10
-2.399026
 20
-6.600119E-02
 11
-2.399026
 21
6.177276E-04
  0
LINE
  8
Layer0$C$L0
 10
-2.399026
 20
-2.875000
 11
-1.447122
 21
-2.875000
  0
ARC
  8
Layer0$C$L0
 10
2.387232
 20
-4.537231
 40
0.120500
 50
119.862553
 51
180.000005
  0
LINE
  8
Layer0$C$L0
 10
2.447231
 20
-4.432731
 11
2.327232
 21
-4.432731
  0
ARC
  8
Layer0$C$L0
 10
2.387232
 20
-4.537231
 40
0.120500
 50
0.000000
 51
60.137446
  0
ARC
  8
Layer0$C$L0
 10
-2.253680
 20
-4.537231
 40
0.120500
 50
119.862553
 51
180.000005
  0
LINE
  8
Layer0$C$L0
 10
-2.193681
 20
-4.432731
 11
-2.313680
 21
-4.432731
  0
ARC
  8
Layer0$C$L0
 10
-2.253680
 20
-4.537231
 40
0.120500
 50
0.000000
 51
60.137446
  0
CIRCLE
  8
Layer0$C$L0
 10
-1.921122
 20
-0.910555
 40
0.187500
  0
CIRCLE
  8
Layer0$C$L0
 10
-1.921122
 20
-0.910555
 40
0.163125
  0
LINE
  8
Layer0$C$L0
 10
-1.827372
 20
-0.964681
 11
-1.827372
 21
-0.856428
  0
LINE
  8
Layer0$C$L0
 10
-1.921122
 20
-1.018808
 11
-1.827372
 21
-0.964682
  0
LINE
  8
Layer0$C$L0
 10
-2.014872
 20
-0.964682
 11
-1.921122
 21
-1.018808
  0
LINE
  8
Layer0$C$L0
 10
-2.014872
 20
-0.856428
 11
-2.014872
 21
-0.964681
  0
LINE
  8
Layer0$C$L0
 10
-1.921122
 20
-0.802302
 11
-2.014872
 21
-0.856428
  0
LINE
  8
Layer0$C$L0
 10
-1.827372
 20
-0.856428
 11
-1.921122
 21
-0.802302
  0
LINE
  8
Layer0$C$L0
 10
1.423890
 20
-5.846731
 11
1.505548
 21
-5.846731
  0
CIRCLE
  8
Layer0$C$L0
 10
-2.330476
 20
-2.683500
 40
5.554999E-02
  0
LINE
  8
Layer0$C$L0
 10
-2.251122
 20
-0.562500
 11
-1.591122
 21
-0.562500
  0
LINE
  8
Layer0$C$L0
 10
-2.251122
 20
-2.312500
 11
-1.591122
 21
-2.312500
  0
LINE
  8
Layer0$C$L0
 10
-1.591122
 20
-0.562500
 11
-1.591122
 21
-2.312500
  0
LINE
  8
Layer0$C$L0
 10
-2.251122
 20
-0.562500
 11
-2.251122
 21
-2.312500
  0
LINE
  8
Layer0$C$L0
 10
-2.262122
 20
-2.557895
 11
-2.262122
 21
-0.317105
  0
LINE
  8
Layer0$C$L0
 10
-2.399026
 20
-2.875000
 11
-2.399026
 21
-2.808999
  0
LINE
  8
Layer0$C$L0
 10
-2.390476
 20
-2.875000
 11
-2.390476
 21
-2.813304
  0
LINE
  8
Layer0$C$L0
 10
-2.270476
 20
-2.875000
 11
-2.270476
 21
-2.813304
  0
CIRCLE
  8
Layer0$C$L0
 10
-2.330476
 20
-2.683500
 40
0.143000
  0
LINE
  8
Layer0$C$L0
 10
-2.390476
 20
-2.553697
 11
-2.390476
 21
-0.321303
  0
CIRCLE
  8
Layer0$C$L0
 10
-2.330476
 20
-0.191500
 40
0.143000
  0
LINE
  8
Layer0$C$L0
 10
-2.270476
 20
-2.553697
 11
-2.270476
 21
-0.321303
  0
LINE
  8
Layer0$C$L0
 10
-2.390476
 20
-6.169599E-02
 11
-2.390476
 21
0.000000
  0
LINE
  8
Layer0$C$L0
 10
-2.270476
 20
-6.169599E-02
 11
-2.270476
 21
0.000000
  0
CIRCLE
  8
Layer0$C$L0
 10
-2.330476
 20
-0.191500
 40
5.554999E-02
  0
LINE
  8
Layer0$C$L0
 10
-2.260807
 20
-6.661892E-02
 11
-2.260807
 21
0.000000
  0
LINE
  8
Layer0$C$L0
 10
-2.262122
 20
-2.875000
 11
-2.262122
 21
-2.809106
  0
LINE
  8
Layer0$C$L0
 10
-2.187122
 20
-0.562500
 11
-2.187122
 21
0.000000
  0
ARC
  8
Layer0$C$L0
 10
-1.515476
 20
-2.683500
 40
0.143000
 50
118.644361
 51
241.355635
  0
LINE
  8
Layer0$C$L0
 10
-2.399026
 20
0.000000
 11
-1.445807
 21
0.000000
  0
CIRCLE
  8
Layer0$C$L0
 10
-1.921122
 20
-2.562000
 40
0.101000
  0
CIRCLE
  8
Layer0$C$L0
 10
-1.921122
 20
-0.311999
 40
0.101000
  0
LINE
  8
Layer0$C$L0
 10
-1.447122
 20
-2.557895
 11
-1.447122
 21
-0.317105
  0
LINE
  8
Layer0$C$L0
 10
-1.447122
 20
-2.875000
 11
-1.447122
 21
-2.809106
  0
LINE
  8
Layer0$C$L0
 10
-2.187122
 20
-2.875000
 11
-2.187122
 21
-2.312500
  0
LINE
  8
Layer0$C$L0
 10
-1.445807
 20
-6.661892E-02
 11
-1.445807
 21
0.000000
  0
CIRCLE
  8
Layer0$C$L0
 10
-1.515476
 20
-2.683500
 40
5.554999E-02
  0
CIRCLE
  8
Layer0$C$L0
 10
-1.515476
 20
-0.191500
 40
5.554999E-02
  0
LINE
  8
Layer0$C$L0
 10
-1.584026
 20
-6.600094E-02
 11
-1.584026
 21
0.000000
  0
LINE
  8
Layer0$C$L0
 10
-1.455476
 20
-8.757687E-02
 11
-1.455476
 21
0.000000
  0
LINE
  8
Layer0$C$L0
 10
-1.575476
 20
-8.757687E-02
 11
-1.575476
 21
0.000000
  0
LINE
  8
Layer0$C$L0
 10
-1.455476
 20
-2.579577
 11
-1.455476
 21
-0.295423
  0
ARC
  8
Layer0$C$L0
 10
-1.515476
 20
-0.191500
 40
0.120000
 50
299.999967
 51
420.000025
  0
ARC
  8
Layer0$C$L0
 10
-1.515476
 20
-0.191500
 40
0.143000
 50
298.554699
 51
420.843663
  0
LINE
  8
Layer0$C$L0
 10
-1.575476
 20
-2.579577
 11
-1.575476
 21
-0.295423
  0
LINE
  8
Layer0$C$L0
 10
-1.584026
 20
-2.558002
 11
-1.584026
 21
-0.316998
  0
ARC
  8
Layer0$C$L0
 10
-1.515476
 20
-0.191500
 40
0.120000
 50
119.999990
 51
240.000034
  0
ARC
  8
Layer0$C$L0
 10
-1.515476
 20
-0.191500
 40
0.143000
 50
118.644361
 51
241.355663
  0
ARC
  8
Layer0$C$L0
 10
-1.515476
 20
-2.683500
 40
0.120000
 50
119.999990
 51
240.000034
  0
ARC
  8
Layer0$C$L0
 10
-1.515476
 20
-2.683500
 40
0.120000
 50
299.999967
 51
420.000025
  0
ARC
  8
Layer0$C$L0
 10
-1.515476
 20
-2.683500
 40
0.143000
 50
298.554699
 51
421.445293
  0
LINE
  8
Layer0$C$L0
 10
-1.455476
 20
-2.875000
 11
-1.455476
 21
-2.787423
  0
LINE
  8
Layer0$C$L0
 10
-1.575476
 20
-2.875000
 11
-1.575476
 21
-2.787423
  0
LINE
  8
Layer0$C$L0
 10
-1.584026
 20
-2.875000
 11
-1.584026
 21
-2.808999
  0
LINE
  8
Layer0$C$L0
 10
-1.921122
 20
-2.370361
 11
-1.921122
 21
-2.798373
  0
LINE
  8
Layer0$C$L0
 10
-1.921122
 20
-0.124762
 11
-1.921122
 21
-0.494143
  0
LINE
  8
Layer0$C$L0
  6
CENTERLINE
 10
-2.117480
 20
-0.311999
 11
-1.759826
 21
-0.311999
  0
LINE
  8
Layer0$C$L0
  6
CENTERLINE
 10
-2.105753
 20
-2.562000
 11
-1.730510
 21
-2.562000
  0
LINE
  8
Layer0$C$L0
 10
-2.251122
 20
-1.942554
 11
-1.591122
 21
-1.942554
  0
LINE
  8
Layer0$C$L0
 10
-2.251122
 20
-1.568555
 11
-1.591122
 21
-1.568555
  0
CIRCLE
  8
Layer0$C$L0
 10
-2.071122
 20
-2.129555
 40
0.106500
  0
CIRCLE
  8
Layer0$C$L0
 10
-1.771122
 20
-2.129555
 40
0.106500
  0
CIRCLE
  8
Layer0$C$L0
 10
-2.071122
 20
-1.755555
 40
0.106500
  0
CIRCLE
  8
Layer0$C$L0
 10
-1.771122
 20
-1.755555
 40
0.106500
  0
LINE
  8
Layer0$C$L0
 10
-1.980242
 20
-2.074030
 11
-2.126647
 21
-2.220435
  0
LINE
  8
Layer0$C$L0
 10
-2.015597
 20
-2.038674
 11
-2.162002
 21
-2.185080
  0
LINE
  8
Layer0$C$L0
 10
-1.680242
 20
-2.074030
 11
-1.826647
 21
-2.220435
  0
LINE
  8
Layer0$C$L0
 10
-1.715597
 20
-2.038674
 11
-1.862002
 21
-2.185080
  0
LINE
  8
Layer0$C$L0
 10
-1.680242
 20
-1.700030
 11
-1.826647
 21
-1.846436
  0
LINE
  8
Layer0$C$L0
 10
-1.980242
 20
-1.700030
 11
-2.126647
 21
-1.846436
  0
LINE
  8
Layer0$C$L0
 10
-2.015597
 20
-1.664675
 11
-2.162002
 21
-1.811080
  0
LINE
  8
Layer0$C$L0
 10
-1.715597
 20
-1.664675
 11
-1.862002
 21
-1.811080
  0
LINE
  8
Layer0$C$L0
 10
-1.921122
 20
-1.445910
 11
-1.956477
 21
-1.481266
  0
LINE
  8
Layer0$C$L0
 10
-1.956477
 20
-1.410555
 11
-1.991832
 21
-1.445910
  0
LINE
  8
Layer0$C$L0
 10
-1.921122
 20
-1.445910
 11
-1.885767
 21
-1.481265
  0
LINE
  8
Layer0$C$L0
 10
-1.885766
 20
-1.410555
 11
-1.850411
 21
-1.445910
  0
LINE
  8
Layer0$C$L0
 10
-1.991832
 20
-1.445910
 11
-1.956477
 21
-1.481266
  0
LINE
  8
Layer0$C$L0
 10
-1.850411
 20
-1.445910
 11
-1.885767
 21
-1.481265
  0
LINE
  8
Layer0$C$L0
 10
-1.885766
 20
-1.339845
 11
-1.850411
 21
-1.375199
  0
LINE
  8
Layer0$C$L0
 10
-1.956477
 20
-1.339845
 11
-1.991832
 21
-1.375199
  0
LINE
  8
Layer0$C$L0
 10
-1.991832
 20
-1.375199
 11
-1.956477
 21
-1.410555
  0
LINE
  8
Layer0$C$L0
 10
-1.850411
 20
-1.375199
 11
-1.885766
 21
-1.410555
  0
LINE
  8
Layer0$C$L0
 10
-1.885766
 20
-1.339845
 11
-1.921122
 21
-1.375199
  0
LINE
  8
Layer0$C$L0
 10
-1.921122
 20
-1.375199
 11
-1.956477
 21
-1.339845
  0
LINE
  8
Layer0$C$L0
 10
2.455794
 20
-6.442731
 11
1.502575
 21
-6.442731
  0
LINE
  8
Layer0$C$L0
 10
1.824424
 20
-5.066796
 11
2.125759
 21
-5.066796
  0
LINE
  8
Layer0$C$L0
 10
1.795092
 20
-5.166796
 11
2.155092
 21
-5.166796
  0
LINE
  8
Layer0$C$L0
 10
1.795092
 20
-5.266796
 11
2.155092
 21
-5.266796
  0
LINE
  8
Layer0$C$L0
 10
1.975092
 20
-5.350732
 11
2.155092
 21
-5.266796
  0
LINE
  8
Layer0$C$L0
 10
1.795092
 20
-5.266796
 11
1.975092
 21
-5.350731
  0
LINE
  8
Layer0$C$L0
 10
2.155092
 20
-5.266796
 11
2.155092
 21
-5.100988
  0
LINE
  8
Layer0$C$L0
 10
1.795092
 20
-5.266796
 11
1.795092
 21
-5.100988
  0
LINE
  8
Layer0$C$L0
 10
-1.591512
 20
-5.486100
 11
-1.591512
 21
-5.357731
  0
LINE
  8
Layer0$C$L0
 10
-1.791512
 20
-5.486100
 11
-1.791512
 21
-5.357731
  0
LINE
  8
Layer0$C$L0
 10
-1.891512
 20
-5.486101
 11
-1.891512
 21
-5.357731
  0
LINE
  8
Layer0$C$L0
 10
-2.091512
 20
-5.486101
 11
-2.091512
 21
-5.357731
  0
LINE
  8
Layer0$C$L0
 10
-2.070806
 20
-4.991100
 11
-1.912219
 21
-4.991100
  0
LINE
  8
Layer0$C$L0
 10
-2.091512
 20
-5.041101
 11
-1.891512
 21
-5.041101
  0
LINE
  8
Layer0$C$L0
 10
-2.091512
 20
-5.091101
 11
-1.891512
 21
-5.091101
  0
LINE
  8
Layer0$C$L0
 10
-1.770805
 20
-4.991100
 11
-1.612219
 21
-4.991100
  0
LINE
  8
Layer0$C$L0
 10
-1.791512
 20
-5.041100
 11
-1.591512
 21
-5.041100
  0
LINE
  8
Layer0$C$L0
 10
-1.791512
 20
-5.091100
 11
-1.591512
 21
-5.091100
  0
LINE
  8
Layer0$C$L0
 10
-1.770805
 20
-5.336100
 11
-1.612219
 21
-5.336100
  0
LINE
  8
Layer0$C$L0
 10
-2.070806
 20
-5.336100
 11
-1.912219
 21
-5.336100
  0
LINE
  8
Layer0$C$L0
 10
-2.091512
 20
-5.386100
 11
-1.891512
 21
-5.386100
  0
LINE
  8
Layer0$C$L0
 10
-1.791512
 20
-5.386100
 11
-1.591512
 21
-5.386100
  0
LINE
  8
Layer0$C$L0
 10
-1.791512
 20
-5.436100
 11
-1.591512
 21
-5.436100
  0
LINE
  8
Layer0$C$L0
 10
-2.091512
 20
-5.436100
 11
-1.891512
 21
-5.436100
  0
LINE
  8
Layer0$C$L0
 10
-2.091512
 20
-5.486101
 11
-1.891512
 21
-5.486101
  0
LINE
  8
Layer0$C$L0
 10
-1.791512
 20
-5.486100
 11
-1.591512
 21
-5.486100
  0
LINE
  8
Layer0$C$L0
 10
-1.791512
 20
-5.141100
 11
-1.591512
 21
-5.141100
  0
LINE
  8
Layer0$C$L0
 10
-2.091512
 20
-5.141101
 11
-1.891512
 21
-5.141101
  0
LINE
  8
Layer0$C$L0
 10
-2.091512
 20
-5.141101
 11
-1.991512
 21
-5.187732
  0
LINE
  8
Layer0$C$L0
 10
-1.791512
 20
-5.141100
 11
-1.691512
 21
-5.187731
  0
LINE
  8
Layer0$C$L0
 10
-1.791512
 20
-5.486100
 11
-1.691512
 21
-5.532731
  0
LINE
  8
Layer0$C$L0
 10
-2.091512
 20
-5.486101
 11
-1.991512
 21
-5.532732
  0
LINE
  8
Layer0$C$L0
 10
-1.991512
 20
-5.532731
 11
-1.891512
 21
-5.486101
  0
LINE
  8
Layer0$C$L0
 10
-1.691512
 20
-5.532731
 11
-1.591512
 21
-5.486100
  0
LINE
  8
Layer0$C$L0
 10
-1.691512
 20
-5.187731
 11
-1.591512
 21
-5.141100
  0
LINE
  8
Layer0$C$L0
 10
-1.991512
 20
-5.187732
 11
-1.891512
 21
-5.141101
  0
LINE
  8
Layer0$C$L0
 10
-1.591512
 20
-5.141100
 11
-1.591512
 21
-5.012732
  0
LINE
  8
Layer0$C$L0
 10
-1.791512
 20
-5.141100
 11
-1.791512
 21
-5.012732
  0
LINE
  8
Layer0$C$L0
 10
-1.891512
 20
-5.141101
 11
-1.891512
 21
-5.012732
  0
LINE
  8
Layer0$C$L0
 10
-2.091512
 20
-5.141101
 11
-2.091512
 21
-5.012731
  0
ARC
  8
Layer0$C$L0
 10
-1.691512
 20
-5.432731
 40
0.125000
 50
21.235874
 51
336.643632
  0
ARC
  8
Layer0$C$L0
 10
-1.691512
 20
-5.087731
 40
0.125000
 50
11.437184
 51
346.442330
  0
CIRCLE
  8
Layer0$C$L0
 10
-1.991512
 20
-5.432731
 40
0.125000
  0
CIRCLE
  8
Layer0$C$L0
 10
-1.991512
 20
-5.087731
 40
0.125000
  0
ARC
  8
Layer0$C$L0
 10
2.477788
 20
-4.979732
 40
3.000000E-02
 50
270.000001
 51
359.999983
  0
LINE
  8
Layer0$C$L0
 10
2.477788
 20
-5.009731
 11
2.449471
 21
-5.009731
  0
LINE
  8
Layer0$C$L0
 10
2.507788
 20
-4.979732
 11
2.507788
 21
-4.537231
  0
LINE
  8
Layer0$C$L0
 10
1.713674
 20
-5.662731
 11
2.321466
 21
-5.662731
  0
LINE
  8
Layer0$C$L0
 10
2.243890
 20
-5.911731
 11
1.718282
 21
-5.911731
  0
LINE
  8
Layer0$C$L0
 10
1.662794
 20
-4.504731
 11
1.481726
 21
-4.504731
  0
LINE
  8
Layer0$C$L0
 10
1.692788
 20
-4.534176
 11
1.725796
 21
-6.317731
  0
LINE
  8
Layer0$C$L0
 10
1.451731
 20
-4.534209
 11
1.428913
 21
-5.845398
  0
LINE
  8
Layer0$C$L0
 10
1.632375
 20
-4.534599
 11
1.640242
 21
-6.317731
  0
LINE
  8
Layer0$C$L0
 10
1.502575
 20
-6.442731
 11
1.512094
 21
-4.534582
  0
ARC
  8
Layer0$C$L0
 10
1.481726
 20
-4.534732
 40
3.000000E-02
 50
89.999996
 51
179.003016
  0
ARC
  8
Layer0$C$L0
 10
1.662794
 20
-4.534732
 40
3.000000E-02
 50
1.060232
 51
89.999996
  0
ARC
  8
Layer0$C$L0
 10
1.602376
 20
-4.534732
 40
3.000000E-02
 50
0.252780
 51
89.999996
  0
ARC
  8
Layer0$C$L0
 10
1.542094
 20
-4.534732
 40
3.000000E-02
 50
89.999996
 51
179.714148
  0
LINE
  8
Layer0$C$L0
 10
2.243890
 20
-5.846731
 11
2.243890
 21
-6.317731
  0
LINE
  8
Layer0$C$L0
 10
2.243890
 20
-5.846731
 11
2.320549
 21
-5.846731
  0
LINE
  8
Layer0$C$L0
 10
2.317575
 20
-6.442731
 11
2.327095
 21
-4.534582
  0
LINE
  8
Layer0$C$L0
 10
2.447375
 20
-4.534599
 11
2.455794
 21
-6.442731
  0
LINE
  8
Layer0$C$L0
 10
2.243890
 20
-6.317731
 11
1.640242
 21
-6.317731
  0
LINE
  8
Layer0$C$L0
 10
2.266732
 20
-4.979732
 11
2.266732
 21
-4.537231
  0
LINE
  8
Layer0$C$L0
 10
2.296731
 20
-5.009731
 11
2.325048
 21
-5.009731
  0
ARC
  8
Layer0$C$L0
 10
2.296731
 20
-4.979732
 40
3.000000E-02
 50
180.000019
 51
270.000001
  0
LINE
  8
Layer0$C$L0
 10
2.305092
 20
-5.662731
 11
2.305092
 21
-5.009731
  0
LINE
  8
Layer0$C$L0
 10
2.266732
 20
-4.787731
 11
1.697481
 21
-4.787731
  0
CIRCLE
  8
Layer0$C$L0
 10
1.975092
 20
-5.225731
 40
0.219000
  0
LINE
  8
Layer0$C$L0
 10
-2.133152
 20
-4.787731
 11
-1.563901
 21
-4.787731
  0
LINE
  8
Layer0$C$L0
 10
-2.171512
 20
-5.662731
 11
-2.171512
 21
-5.009731
  0
ARC
  8
Layer0$C$L0
 10
-2.163152
 20
-4.979732
 40
3.000000E-02
 50
270.000001
 51
359.999983
  0
LINE
  8
Layer0$C$L0
 10
-2.163152
 20
-5.009731
 11
-2.191469
 21
-5.009731
  0
LINE
  8
Layer0$C$L0
 10
-2.133152
 20
-4.979732
 11
-2.133152
 21
-4.537231
  0
LINE
  8
Layer0$C$L0
 10
-2.322214
 20
-6.442731
 11
-1.368995
 21
-6.442731
  0
LINE
  8
Layer0$C$L0
 10
-2.110310
 20
-6.317731
 11
-1.506662
 21
-6.317731
  0
LINE
  8
Layer0$C$L0
 10
-2.313771
 20
-4.529088
 11
-2.322214
 21
-6.442731
  0
LINE
  8
Layer0$C$L0
 10
-2.183995
 20
-6.442731
 11
-2.193524
 21
-4.532684
  0
LINE
  8
Layer0$C$L0
 10
-2.110310
 20
-5.846731
 11
-2.186969
 21
-5.846731
  0
LINE
  8
Layer0$C$L0
 10
-2.110310
 20
-5.846731
 11
-2.110310
 21
-6.317731
  0
LINE
  8
Layer0$C$L0
 10
-1.295310
 20
-5.846731
 11
-1.371969
 21
-5.846731
  0
ARC
  8
Layer0$C$L0
 10
-1.408515
 20
-4.534732
 40
3.000000E-02
 50
0.285852
 51
90.000003
  0
ARC
  8
Layer0$C$L0
 10
-1.468796
 20
-4.534732
 40
3.000000E-02
 50
90.000003
 51
179.747220
  0
ARC
  8
Layer0$C$L0
 10
-1.529214
 20
-4.534732
 40
3.000000E-02
 50
90.000003
 51
178.939768
  0
ARC
  8
Layer0$C$L0
 10
-1.348147
 20
-4.534732
 40
3.000000E-02
 50
0.996984
 51
90.000003
  0
LINE
  8
Layer0$C$L0
 10
-1.368995
 20
-6.442731
 11
-1.378515
 21
-4.534582
  0
LINE
  8
Layer0$C$L0
 10
-1.498796
 20
-4.534599
 11
-1.506662
 21
-6.317731
  0
LINE
  8
Layer0$C$L0
 10
-1.318151
 20
-4.534209
 11
-1.295333
 21
-5.845398
  0
LINE
  8
Layer0$C$L0
 10
-1.559209
 20
-4.534176
 11
-1.592217
 21
-6.317731
  0
LINE
  8
Layer0$C$L0
 10
-1.529214
 20
-4.504731
 11
-1.348147
 21
-4.504731
  0
LINE
  8
Layer0$C$L0
 10
-2.110310
 20
-5.911731
 11
-1.584703
 21
-5.911731
  0
LINE
  8
Layer0$C$L0
 10
-2.187887
 20
-5.662731
 11
-1.580094
 21
-5.662731
  0
LINE
  8
Layer0$C$L0
 10
-2.374208
 20
-4.979732
 11
-2.374208
 21
-4.537231
  0
LINE
  8
Layer0$C$L0
 10
-2.344209
 20
-5.009731
 11
-2.315892
 21
-5.009731
  0
ARC
  8
Layer0$C$L0
 10
-2.344209
 20
-4.979732
 40
3.000000E-02
 50
180.000019
 51
270.000001
  0
ENDSEC
  0
EOF
